Loading...
Error

Мистер Холмс / Mr. Holmes (Билл Кондон) [2015 г., драма, криминал, детектив, BDRip] VO + Original

Статистика раздачи
Размер:  1,46 GB   |    Зарегистрирован:  1 год 1 месяц   |    Скачан:  125 раз
Сидов:  2  |  0 KB/s  ]   Личеров:  0  |  0 KB/s  ]

* - сиды/пиры с внешних источников

   
 
Автор Сообщение

makkol Пол:Муж

23-Окт-2015 13:20

Мистер Холмс / Mr. Holmes
«The man behind the myth»


Год выпуска: 2015
Жанр: драма, криминал, детектив
Производство: Великобритания , США [AI-Film, See-Saw Films, Archer Gray]
Режиссер: Билл Кондон
В ролях: Иэн МакКеллен, Лора Линни, Майло Паркер, Хироюки Санада, Хэтти Морахэн, Патрик Кеннеди, Роджер Аллам, Филип Дэвис, Фрэнсис де ла Тур, Чарльз Мэддокс
Сюжет фильма:
Действие развернется в 1947 году, а речь в фильме пойдет об отошедшем от дел Шерлоке Холмсе, живущем в сонной деревушке в Сассексе вместе с горничной миссис Манро и ее малолетним сыном, который занимается сыском в качестве хобби. Несмотря на уединенный образ жизни, знаменитому сыщику с Бейкер-стрит по-прежнему не дает покоя тайна так и нераскрытого 30 лет назад дела.

  • Мировая премьера: 8 февраля 2015
  • Российская премьера: 25 февраля 2016


Качество видео: BDRip

Продолжительность: 01:43:45
Формат: AVI
Видео: XviD, 720x304 (2.35:1), 23.976 fps, 1612 kbps
Аудио #1: русский, любительский одноголосый закадровый (Andi), AC3 2.0, 48 kHz, 192 kbps
Аудио #2: английский, оригинал, AC3 2.0, 48 kHz, 192 kbps

Код:

Общее
Полное имя                               : Mr.Holmes.2015.L1.BDRip.avi
Формат                                   : AVI
Формат/Информация                        : Audio Video Interleave
Размер файла                             : 1,46 Гбайт
Продолжительность                        : 1 ч. 43 м.
Общий поток                              : 2010 Кбит/сек
Программа кодирования                    : VirtualDubMod 1.5.10.3 | (build 2550/release)
Библиотека кодирования                   : VirtualDubMod build 2550/release

Видео
Идентификатор                            : 0
Формат                                   : MPEG-4 Visual
Профиль формата                          : Advanced Simple@L5
Параметр BVOP формата                    : 1
Параметр QPel формата                    : Нет
Параметр GMC формата                     : Без точки перехода
Параметр матрицы формата                 : Выборочная
Идентификатор кодека                     : XVID
Идентификатор кодека/Подсказка           : XviD
Продолжительность                        : 1 ч. 43 м.
Битрейт                                  : 1612 Кбит/сек
Ширина                                   : 720 пикселей
Высота                                   : 304 пикселя
Соотношение сторон                       : 2,35:1
Частота кадров                           : 23,976 кадра/сек
Цветовое пространство                    : YUV
Субдискретизация насыщенности            : 4:2:0
Битовая глубина                          : 8 бит
Тип развёртки                            : Прогрессивная
Метод сжатия                             : С потерями
Бит/(Пиксели*Кадры)                      : 0.307
Размер потока                            : 1,17 Гбайт (80%)
Библиотека кодирования                   : XviD 67

Аудио #1
Идентификатор                            : 1
Формат                                   : AC-3
Формат/Информация                        : Audio Coding 3
Расширение режима                        : CM (complete main)
Параметр Endianness формата              : Big
Идентификатор кодека                     : 2000
Продолжительность                        : 1 ч. 43 м.
Вид битрейта                             : Постоянный
Битрейт                                  : 192 Кбит/сек
Каналы                                   : 2 канала
Расположение каналов                     : Front: L R
Частота                                  : 48,0 КГц
Метод сжатия                             : С потерями
Задержка видео                           : 9 мс.
Размер потока                            : 142 Мбайт (10%)
Выравнивание                             : Разделение по промежуткам
Продолжительность промежутка             : 42  мс. (1,00 видеокадр)
Время предзагрузки промежутка            : 500  мс.

Аудио #2
Идентификатор                            : 2
Формат                                   : AC-3
Формат/Информация                        : Audio Coding 3
Расширение режима                        : CM (complete main)
Параметр Endianness формата              : Big
Идентификатор кодека                     : 2000
Продолжительность                        : 1 ч. 43 м.
Вид битрейта                             : Постоянный
Битрейт                                  : 192 Кбит/сек
Каналы                                   : 2 канала
Расположение каналов                     : Front: L R
Частота                                  : 48,0 КГц
Метод сжатия                             : С потерями
Размер потока                            : 142 Мбайт (10%)
Выравнивание                             : Разделение по промежуткам
Продолжительность промежутка             : 42  мс. (1,00 видеокадр)
Время предзагрузки промежутка            : 500  мс.
picpicpicpicpic
Для увеличения картинки щелкните мышкой по превью

Этот торрент недоступен для скачивания без регистрации, однако доступен по публичной magnet-ссылке (источники с публичных трекеров). Перед использованием ссылки прочтите, пожалуйста Пользовательское соглашение, а также как можно дольше оставайтесь на раздаче! Для того, чтобы скачать сам торрент-файл (который видит больше источников), а также для того, чтобы поблагодарить релизера, вам необходимо зарегистрироваться. Если регистрироваться лень - вы можете также попробовать скачать релиз по нашим партнерским ссылкам ниже.

[underverse.su].t59307.torrent
Трекер: Зарегистрирован   [ 23.10.2015 13:20 ]  

Статус: проверено (by makkol at 24.10.2015 14:19)
Поблагодарили: 2 человека
Тип торрента: публичный - доступные источники с открытых трекеров: 
Размер: 1,46 GB (занимает 1/3 DVDR, для записи нужно 1 болванка DVDR/RW)
 
 
Похожие темы
Форум Тема Автор Торрент Отв. Посл. сооб.
Зарубежное кино [DVDRip, Low-Res HDRip, и т.д.] Мистер Холмс / Mr. Holmes (Билл Кондон) [2015 г., драма, криминал, детектив, HDRip] MVO makkol
80 | 1

0 | 493

63

01.11.2015 12:26

Зарубежное кино [DVDRip, Low-Res HDRip, и т.д.] Мистер Холмс / Mr. Holmes (Билл Кондон) [2015 г., драма, детектив, BDRip-AVC] MVO + Original + Subs ultarasbarcelona
25 | 0

0 | 1138

21

15.11.2015 15:00

Зарубежное кино [DVDRip, Low-Res HDRip, и т.д.] Мистер Холмс / Mr. Holmes (Билл Кондон / Bill Condon) [2015 г., драма, детектив, BDRip-AVC] AVO (Сербин) 90ytr90
7 | 0

0 | 546

17

04.03.2016 15:17

Зарубежное кино [HDDVDRip / BDRip / WEB-DL / HDTV 1080/720р] Мистер Холмс / Mr. Holmes (Билл Кондон) [2015 г., драма, криминал, детектив, BDRip 720p] VO + Original + Subs makkol
31 | 0

0 | 716

56

23.10.2015 13:33

Зарубежное кино [HDDVDRip / BDRip / WEB-DL / HDTV 1080/720р] Мистер Холмс / Mr. Holmes (Билл Кондон) [2015 г., драма, криминал, детектив, BDRip 1080p] VO + Original + Subs makkol
8 | 0

0 | 967

43

23.10.2015 13:48

Зарубежное кино [HDDVDRip / BDRip / WEB-DL / HDTV 1080/720р] Мистер Холмс / Mr. Holmes ( Билл Кондон) [2015 г., драма, криминал, детектив, BDRip 1080p] MVO + Original + Subs makkol
20 | 0

0 | 431

16

01.11.2015 12:37

Зарубежное кино [HDDVDRip / BDRip / WEB-DL / HDTV 1080/720р] Мистер Холмс / Mr. Holmes (Билл Кондон / Bill Condon) [2015 г., драма, детектив, BDRip 720p] AVO (Сербин) + Original (Eng) + Sub (Rus) 90ytr90
49 | 0

0 | 595

8

03.03.2016 18:04


Яндекс.Метрика powered by Sphinx


В Н И М А Н И Е
Сайт не распространяет и не хранит электронные версии произведений, а лишь бесплатно и без коммерческой выгоды (не требуя взамен платы,
SMS и т.д.) предоставляет доступ к создаваемому пользователями каталогу ссылок на торрент-файлы, которые содержат только списки хеш-сумм.
Убедительная просьба с жалобами обращаться напрямую к пользователю, разместившему торрент файл.

Вверх