Loading...
Error

Город монстров / Tales of Halloween (Даррен Линн Боусман, Аксель Кэролин, Адам Гираш) [2015 г., ужасы, WEB-DLRip] VO

Статистика раздачи
Размер:  1,26 GB   |    Зарегистрирован:  1 год 1 месяц   |    Скачан:  40 раз

Полного источника не было: 6 месяцев

Сидов:  0  |  0 KB/s  ]   Личеров:  0  |  0 KB/s  ]

* - сиды/пиры с внешних источников

   
 
Автор Сообщение

makkol Пол:Муж

23-Окт-2015 13:04

Город монстров / Tales of Halloween
«Ночь разбудит их»


Год выпуска: 2015
Жанр: ужасы
Производство: США [Epic Pictures Group, Film Entertainment Services]
Режиссер: Даррен Линн Боусман, Аксель Кэролин, Адам Гираш
В ролях: Бу Бу Стюарт, Бен Вулф, Бэрри Боствик, Грэйс Фиппс, Лин Шэй, Эдриенн Барбо, Серина Винсент, Лиза Мари, Грег Гранберг, Сэм Уитвер
Сюжет фильма:
Десять историй, объединенные одной общей темой Хэллоуина, переплетаются вместе в американском пригороде, где упыри, черти, пришельцы и убийцы с топором появляются только в течение одной ночи, чтобы терроризировать ничего не подозревающих жителей.

  • Мировая премьера: 24 июля 2015
  • Российская премьера: 12 ноября 2015

Перевод: МЕГАПЫХАРЬ
Озвучивание: Васька Куролесов

Качество видео: WEB-DLRip

Продолжительность: 01:37:20
Формат: AVI
Видео: XviD, 720x304 (2.35:1), 23.976 fps, 1645 kbps
Аудио: русский, любительский одноголосый закадровый, AC3 2.0, 48 kHz, 192 kbps

Код:

General
Complete name                  : Tales.of.Halloween.2015.HDRip_KypoJIecoB.avi
Format                         : AVI
Format/Info                    : Audio Video Interleave
File size                      : 1.26 GiB
Duration                       : 1h 37mn
Overall bit rate               : 1 847 Kbps

Video
ID                             : 0
Format                         : MPEG-4 Visual
Format profile                 : Advanced Simple@L5
Format settings, BVOP          : 2
Format settings, QPel          : No
Format settings, GMC           : No warppoints
Format settings, Matrix        : Default (H.263)
Codec ID                       : XVID
Codec ID/Hint                  : XviD
Duration                       : 1h 37mn
Bit rate                       : 1 645 Kbps
Width                          : 720 pixels
Height                         : 304 pixels
Display aspect ratio           : 2.35:1
Frame rate                     : 23.976 fps
Color space                    : YUV
Chroma subsampling             : 4:2:0
Bit depth                      : 8 bits
Scan type                      : Progressive
Compression mode               : Lossy
Bits/(Pixel*Frame)             : 0.314
Stream size                    : 1.12 GiB (89%)
Writing library                : XviD 66

Audio
ID                             : 1
Format                         : AC-3
Format/Info                    : Audio Coding 3
Mode extension                 : CM (complete main)
Format settings, Endianness    : Big
Codec ID                       : 2000
Duration                       : 1h 37mn
Bit rate mode                  : Constant
Bit rate                       : 192 Kbps
Channel(s)                     : 2 channels
Channel positions              : Front: L R
Sampling rate                  : 48.0 KHz
Compression mode               : Lossy
Stream size                    : 134 MiB (10%)
Alignment                      : Split accross interleaves
Interleave, duration           : 42 ms (1.00 video frame)
Interleave, preload duration   : 500 ms
picpicpicpicpic
Для увеличения картинки щелкните мышкой по превью

Этот торрент недоступен для скачивания без регистрации, однако доступен по публичной magnet-ссылке (источники с публичных трекеров). Перед использованием ссылки прочтите, пожалуйста Пользовательское соглашение, а также как можно дольше оставайтесь на раздаче! Для того, чтобы скачать сам торрент-файл (который видит больше источников), а также для того, чтобы поблагодарить релизера, вам необходимо зарегистрироваться. Если регистрироваться лень - вы можете также попробовать скачать релиз по нашим партнерским ссылкам ниже.

[underverse.su].t59306.torrent
Трекер: Зарегистрирован   [ 23.10.2015 13:04 ]  

Статус: проверено (by makkol at 24.10.2015 14:18)
Поблагодарили: 1 человек
Тип торрента: публичный - доступные источники с открытых трекеров: 
Размер: 1,26 GB (занимает 0,29 DVDR, для записи нужно 1 болванка DVDR/RW)
 
 
Похожие темы
Форум Тема Автор Торрент Отв. Посл. сооб.
T Зарубежное кино [DVDRip, Low-Res HDRip, и т.д.] Город монстров / Tales of Halloween (Даррен Линн Боусман, Аксель Кэролин, Адам Гираш) [2015 г., ужасы, HDRip] Dub (Line) makkol
240 | 7

0 | 548

28

10.12.2015 11:14

* Зарубежное кино [DVDRip, Low-Res HDRip, и т.д.] Город монстров / Tales of Halloween (Даррен Линн Боусман, Аксель Кэролин, Адам Гираш) [2015 г., ужасы, HDRip] Dub (iTunes) 90ytr90
0 | 0

0 | 492

5

17.03.2016 21:41

T Зарубежное кино [HDDVDRip / BDRip / WEB-DL / HDTV 1080/720р] Город монстров / Tales of Halloween (Даррен Линн Боусман, Аксель Кэролин, Адам Гираш) [2015 г., ужасы, BDRip 1080p] Dub (Line) + Original makkol
10 | 0

0 | 386

9

10.12.2015 11:26

T Зарубежное кино [HDDVDRip / BDRip / WEB-DL / HDTV 1080/720р] Город монстров / Tales of Halloween (Даррен Линн Боусман, Аксель Кэролин, Адам Гираш) [2015 г., ужасы, BDRip 720p] Dub + Original makkol
0 | 0

0 | 650

2

17.03.2016 23:04

T Зарубежное кино [HDDVDRip / BDRip / WEB-DL / HDTV 1080/720р] Город монстров / Tales of Halloween (Даррен Линн Боусман, Аксель Кэролин, Адам Гираш) [2015 г., ужасы, BDRip 1080p] Dub + Original makkol
6 | 0

0 | 689

3

17.03.2016 23:13


Яндекс.Метрика powered by Sphinx


В Н И М А Н И Е
Сайт не распространяет и не хранит электронные версии произведений, а лишь бесплатно и без коммерческой выгоды (не требуя взамен платы,
SMS и т.д.) предоставляет доступ к создаваемому пользователями каталогу ссылок на торрент-файлы, которые содержат только списки хеш-сумм.
Убедительная просьба с жалобами обращаться напрямую к пользователю, разместившему торрент файл.

Вверх