Loading...
Error

Зеленый ад / Людоеды / The Green Inferno (Элай Рот) [2013 г., ужасы, приключения, WEB-DLRip] VO

Статистика раздачи
Размер:  1,37 GB   |    Зарегистрирован:  1 год 1 месяц   |    Скачан:  27 раз

Полного источника не было: 6 месяцев

Сидов:  0  |  0 KB/s  ]   Личеров:  0  |  0 KB/s  ]

* - сиды/пиры с внешних источников

   
 
Автор Сообщение

makkol Пол:Муж

20-Окт-2015 22:15

Зеленый ад / Людоеды / The Green Inferno
«Страх сожрет тебя»


Год выпуска: 2013
Жанр: ужасы, приключения
Производство: Чили , США [Worldview Entertainment, Dragonfly Entertainment, Sobras International Pictures]
Режиссер: Элай Рот
В ролях: Лоренца Иззо, Ариэль Леви, Дэрил Сабара, Кирби Блисс Блэнтон, Магда Апанович, Скай Феррейра, Николас Мартинез, Аарон Барнс, Игнасия Алламанд, Рамон Льяо
Сюжет фильма:
Чтобы спасти племена Амазонки от вымирания из-за наступления цивилизации, группа из нескольких нью-йоркских студентов отправляется в джунгли Перу. Правда, возвращаясь домой, ребята попадают прямо, можно сказать, в лапы к тем, кого собирались защищать. И все из-за того, что самолет, в котором они направлялись в Америку, потерпел крушение из-за того, что сломался двигатель. Не все выжили, но тем, кому судьба дала еще один шанс, не позавидуешь. Им придется узнать страшную тайну индейского племени. Оказывается, они не только лишают жизни людей, но и съедают их.

  • Мировая премьера: 8 сентября 2013
  • Российская премьера: 5 ноября 2015


Качество видео: WEB-DLRip

Продолжительность: 01:40:38
Формат: AVI
Видео: XviD, 720x304 (2.35:1), 23.976 fps, 1750 kbps
Аудио: русский, любительский одноголосый закадровый, AC3 2.0, 44.1 kHz, 192 kbps

Код:

Общее
Полное имя                               : The.G4een.Infe4no.2013.xixidok.WEB-DLRip.ExKinoRay.avi
Формат                                   : AVI
Формат/Информация                        : Audio Video Interleave
Размер файла                             : 1,37 Гбайт
Продолжительность                        : 1 ч. 40 м.
Общий поток                              : 1951 Кбит/сек
Программа кодирования                    : VirtualDubMod 1.5.10.2 (build 2540/release)
Библиотека кодирования                   : VirtualDubMod build 2540/release
Правообладатель                          : ExKinoRay

Видео
Идентификатор                            : 0
Формат                                   : MPEG-4 Visual
Профиль формата                          : Advanced Simple@L5
Параметр BVOP формата                    : 1
Параметр QPel формата                    : Нет
Параметр GMC формата                     : Без точки перехода
Параметр матрицы формата                 : Выборочная
Идентификатор кодека                     : XVID
Идентификатор кодека/Подсказка           : XviD
Продолжительность                        : 1 ч. 40 м.
Битрейт                                  : 1750 Кбит/сек
Ширина                                   : 720 пикселей
Высота                                   : 304 пикселя
Соотношение сторон                       : 2,35:1
Частота кадров                           : 23,976 кадра/сек
Цветовое пространство                    : YUV
Субдискретизация насыщенности            : 4:2:0
Битовая глубина                          : 8 бит
Тип развёртки                            : Прогрессивная
Метод сжатия                             : С потерями
Бит/(Пиксели*Кадры)                      : 0.333
Размер потока                            : 1,23 Гбайт (90%)
Библиотека кодирования                   : XviD 73

Аудио
Идентификатор                            : 1
Формат                                   : AC-3
Формат/Информация                        : Audio Coding 3
Расширение режима                        : CM (complete main)
Параметр Endianness формата              : Big
Идентификатор кодека                     : 2000
Продолжительность                        : 1 ч. 40 м.
Вид битрейта                             : Постоянный
Битрейт                                  : 192 Кбит/сек
Каналы                                   : 2 канала
Расположение каналов                     : Front: L R
Частота                                  : 44,1 КГц
Битовая глубина                          : 16 бит
Метод сжатия                             : С потерями
Размер потока                            : 138 Мбайт (10%)
Выравнивание                             : Разделение по промежуткам
Продолжительность промежутка             : 42  мс. (1,00 видеокадр)
Время предзагрузки промежутка            : 500  мс.
Заголовок                                : xixidok
Rip by Enigma
Перевод фильма: Enigma
Озвучивание: xixidok
Релиз группы:
Трейлер от xixidoka

picpicpicpicpic
Для увеличения картинки щелкните мышкой по превью

Этот торрент недоступен для скачивания без регистрации, однако доступен по публичной magnet-ссылке (источники с публичных трекеров). Перед использованием ссылки прочтите, пожалуйста Пользовательское соглашение, а также как можно дольше оставайтесь на раздаче! Для того, чтобы скачать сам торрент-файл (который видит больше источников), а также для того, чтобы поблагодарить релизера, вам необходимо зарегистрироваться. Если регистрироваться лень - вы можете также попробовать скачать релиз по нашим партнерским ссылкам ниже.

[underverse.su].t59279.torrent
Трекер: Зарегистрирован   [ 20.10.2015 22:15 ]  

Статус: проверено (by makkol at 22.10.2015 14:57)
Поблагодарили: 2 человека
Тип торрента: публичный - доступные источники с открытых трекеров: 
Размер: 1,37 GB (занимает 0,31 DVDR, для записи нужно 1 болванка DVDR/RW)
 
 
Похожие темы
Форум Тема Автор Торрент Отв. Посл. сооб.
Зарубежное кино [DVDRip, Low-Res HDRip, и т.д.] Зеленый ад / The Green Inferno (Элай Рот / Eli Roth) [2013 г., ужасы, приключения, BDRip-AVC] DVO (DeadSno & den904) + VO (Хихидок) + Original (Eng) 90ytr90
29 | 4

0 | 499

3

15.01.2016 20:55

Зарубежное кино [HDDVDRip / BDRip / WEB-DL / HDTV 1080/720р] Зеленый ад / Людоеды / The Green Inferno (Элай Рот) [2013 г., ужасы, приключения, WEB-DL 720p] VO + Original makkol
2 | 0

0 | 583

21

20.10.2015 22:28


Яндекс.Метрика powered by Sphinx


В Н И М А Н И Е
Сайт не распространяет и не хранит электронные версии произведений, а лишь бесплатно и без коммерческой выгоды (не требуя взамен платы,
SMS и т.д.) предоставляет доступ к создаваемому пользователями каталогу ссылок на торрент-файлы, которые содержат только списки хеш-сумм.
Убедительная просьба с жалобами обращаться напрямую к пользователю, разместившему торрент файл.

Вверх