Loading...
Error

Адреналин / Adrenaline (Джозеф Куинн Симпкинс) [2015 г., драма, WEBRip] DVO

Статистика раздачи
Размер:  1,37 GB   |    Зарегистрирован:  1 год 5 месяцев   |    Скачан:  18 раз

Полного источника не было: 10 месяцев

Сидов:  0  |  0 KB/s  ]   Личеров:  0  |  0 KB/s  ]

* - сиды/пиры с внешних источников

   
 
Автор Сообщение

makkol Пол:Муж

19-Окт-2015 11:24

Адреналин / Adrenaline


Год выпуска: 2015
Жанр: драма
Производство: США [Living Water Films]
Режиссер: Джозеф Куинн Симпкинс
В ролях: Шарлин Амойя, Камерон Арнетт, Дина Бисли, Шэйн Каллахан, Люрей Купер, Гиги Эрнета, Тамара Фария, Р. Кит Харрис, Майк Холмс
Сюжет фильма:
Жизнь уличного гонщика перевернулась, после автокатастрофы, которая оставила его наполовину парализованным. Но несмотря на это, он нашел в себе силы бороться, и вновь вернуться к гонкам.

  • Мировая премьера: 8 сентября 2015


Качество видео: WEBRip

Продолжительность: 01:33:35
Формат: AVI
Видео: XviD, 720x352, 25.000 fps, 1890 kbps
Аудио: русский, любительский двухголосый закадровый (Raim & NastR), AC3 2.0, 48 kHz, 192 kbps

Код:

Общее
Полное имя                               : AdReNaL1n.2015.L2.WEBRip.avi
Формат                                   : AVI
Формат/Информация                        : Audio Video Interleave
Размер файла                             : 1,37 Гбайт
Продолжительность                        : 1 ч. 33 м.
Общий поток                              : 2092 Кбит/сек
Программа кодирования                    : VirtualDubMod 1.5.10.3 | (build 2550/release)
Библиотека кодирования                   : VirtualDubMod build 2550/release

Видео
Идентификатор                            : 0
Формат                                   : MPEG-4 Visual
Профиль формата                          : Advanced Simple@L5
Параметр BVOP формата                    : 2
Параметр QPel формата                    : Нет
Параметр GMC формата                     : Без точки перехода
Параметр матрицы формата                 : Default (MPEG)
Идентификатор кодека                     : XVID
Идентификатор кодека/Подсказка           : XviD
Продолжительность                        : 1 ч. 33 м.
Битрейт                                  : 1890 Кбит/сек
Ширина                                   : 720 пикселей
Высота                                   : 352 пикселя
Соотношение сторон                       : 2,045
Частота кадров                           : 25,000 кадров/сек
Цветовое пространство                    : YUV
Субдискретизация насыщенности            : 4:2:0
Битовая глубина                          : 8 бит
Тип развёртки                            : Прогрессивная
Метод сжатия                             : С потерями
Бит/(Пиксели*Кадры)                      : 0.298
Размер потока                            : 1,24 Гбайт (90%)
Библиотека кодирования                   : XviD 1.2.1 (UTC 2008-12-04)

Аудио
Идентификатор                            : 1
Формат                                   : AC-3
Формат/Информация                        : Audio Coding 3
Расширение режима                        : CM (complete main)
Параметр Endianness формата              : Big
Идентификатор кодека                     : 2000
Продолжительность                        : 1 ч. 33 м.
Вид битрейта                             : Постоянный
Битрейт                                  : 192 Кбит/сек
Каналы                                   : 2 канала
Расположение каналов                     : Front: L R
Частота                                  : 48,0 КГц
Метод сжатия                             : С потерями
Размер потока                            : 129 Мбайт (9%)
Выравнивание                             : Разделение по промежуткам
Продолжительность промежутка             : 40  мс. (1,00 видеокадр)
Время предзагрузки промежутка            : 500  мс.
picpicpicpicpic
Для увеличения картинки щелкните мышкой по превью

Этот торрент недоступен для скачивания без регистрации, однако доступен по публичной magnet-ссылке (источники с публичных трекеров). Перед использованием ссылки прочтите, пожалуйста Пользовательское соглашение, а также как можно дольше оставайтесь на раздаче! Для того, чтобы скачать сам торрент-файл (который видит больше источников), а также для того, чтобы поблагодарить релизера, вам необходимо зарегистрироваться. Если регистрироваться лень - вы можете также попробовать скачать релиз по нашим партнерским ссылкам ниже.

[underverse.su].t59261.torrent
Трекер: Зарегистрирован   [ 19.10.2015 11:24 ]  

Статус: проверено (by makkol at 22.10.2015 14:48)
Поблагодарили: 2 человека
Тип торрента: публичный - доступные источники с открытых трекеров: 
Размер: 1,37 GB (занимает 0,31 DVDR, для записи нужно 1 болванка DVDR/RW)
 
 
Похожие темы
Форум Тема Автор Торрент Отв. Посл. сооб.
Зарубежное кино [DVDRip, Low-Res HDRip, и т.д.] Адреналин 2: Высокое напряжение / Crank: High Voltage (Марк Невелдайн, Брайан Тейлор) [2009 г., боевик, DVDRip] puzzikat
0 | 0

35 | 6583

146

02.01.2010 09:27

Архив Адреналин / Crank (Марк Невелдайн, Брайан Тейлор) [2006 г., боевик, триллер, драма, криминал, DVDRip] venom57rus
0 | 0

5 | 1209

27

29.08.2010 23:52

* Архив Адреналин / Crank (Марк Невелдайн, Брайан Тейлор) [2006 г., Боевик Триллер Драма Криминал, BDRip] timoha

3 | 869

29.08.2010 23:52

Архив Адреналин 2: Высокое напряжение / Crank 2: High Voltage (Марк Невелдайн, Брайан Тейлор) [2009 г., боевик, BDRip] GUree
0 | 0

1 | 839

0

05.11.2011 14:44

Архив Адреналин 2: Высокое напряжение / Crank: High Voltage (Марк Невелдайн, Брайан Тейлор) [2009 г., боевик, DVD-9] baks
0 | 0

9 | 1806

40

08.10.2010 21:24


Яндекс.Метрика powered by Sphinx


В Н И М А Н И Е
Сайт не распространяет и не хранит электронные версии произведений, а лишь бесплатно и без коммерческой выгоды (не требуя взамен платы,
SMS и т.д.) предоставляет доступ к создаваемому пользователями каталогу ссылок на торрент-файлы, которые содержат только списки хеш-сумм.
Убедительная просьба с жалобами обращаться напрямую к пользователю, разместившему торрент файл.

Вверх