Loading...
Error

Больше чем фокусы с Ди Эм Си / Beyond Magic With DMC (7 серий из 7)(Саймон Арнольд, Мэтт Потэкери) [2014 г., документальный, SatRip] Dub + Original

Статистика раздачи
Размер:  3,94 GB   |    Зарегистрирован:  1 год 1 месяц   |    Скачан:  17 раз

Полного источника не было: 5 часов

Сидов:  0  |  0 KB/s  ]   Личеров:  0  |  0 KB/s  ]

* - сиды/пиры с внешних источников

   
 
Автор Сообщение

Alexz9 Пол:Муж

19-Окт-2015 08:49

Больше чем фокусы с Ди Эм Си / Beyond Magic With DMC


Год выпуска: 2014
Жанр: документальный
Страна: США
Режиссер: Саймон Арнольд, Мэтт Потэкери
В ролях: Ди Эм Си / зрители
Сюжет фильма:
Ди Эм Си исследует мир иллюзий, в котором перспектива и восприятие обманывают мозг, заставляя его видеть какую-то иную реальность. Он откроет для нас новые возможности человеческого разума и силы воли...

  • Мировая премьера: 6 ноября 2014
  • Российская премьера: 11 ноября 2014


Качество видео: SatRip

Продолжительность: 00:43:53
Формат: AVI
Видео: XviD, 720*400, 1450 kbps
Аудио #1: русский, дублированный, AC3 2.0, 192 kbps
Аудио #2: английский, оригинал, AC3 2.0, 192 kbps

Код:

Формат : AVI
Формат/Информация : Audio Video Interleave
Размер файла : 580 Мбайт
Продолжительность : 43 м.
Общий поток : 1848 Кбит/сек
Программа кодирования : VirtualDubMod 1.5.10.3 | www.virtualdub-fr.org || (build 2550/release)
Библиотека кодирования : VirtualDubMod build 2550/release

Видео
Идентификатор : 0
Формат : MPEG-4 Visual
Профиль формата : Advanced Simple@L5
Параметр BVOP формата : 1
Параметр QPel формата : Нет
Параметр GMC формата : Без точки перехода
Параметр матрицы формата : Default (H.263)
Идентификатор кодека : XVID
Идентификатор кодека/Подсказка : XviD
Продолжительность : 43 м.
Битрейт : 1450 Кбит/сек
Ширина : 720 пикселей
Высота : 400 пикселей
Соотношение сторон : 16:9
Частота кадров : 25,000 кадров/сек
Цветовое пространство : YUV
Субдискретизация насыщенности : 4:2:0
Битовая глубина : 8 бит
Тип развёртки : Прогрессивная
Метод сжатия : С потерями
Бит/(Пиксели*Кадры) : 0.201
Размер потока : 455 Мбайт (78%)
Библиотека кодирования : XviD 73

Аудио #1
Идентификатор : 1
Формат : AC-3
Формат/Информация : Audio Coding 3
Расширение режима : CM (complete main)
Параметр Endianness формата : Big
Идентификатор кодека : 2000
Продолжительность : 43 м.
Вид битрейта : Постоянный
Битрейт : 192 Кбит/сек
Каналы : 2 канала
Расположение каналов : Front: L R
Частота : 48,0 КГц
Битовая глубина : 16 бит
Метод сжатия : С потерями
Размер потока : 60,3 Мбайт (10%)
Выравнивание : Разделение по промежуткам
Продолжительность промежутка : 40 мс. (1,00 видеокадр)
Время предзагрузки промежутка : 500 мс.

Аудио #2
Идентификатор : 2
Формат : AC-3
Формат/Информация : Audio Coding 3
Расширение режима : CM (complete main)
Параметр Endianness формата : Big
Идентификатор кодека : 2000
Продолжительность : 43 м.
Вид битрейта : Постоянный
Битрейт : 192 Кбит/сек
Каналы : 2 канала
Расположение каналов : Front: L R
Частота : 48,0 КГц
Битовая глубина : 16 бит
Метод сжатия : С потерями
Размер потока : 60,3 Мбайт (10%)
Выравнивание : Разделение по промежуткам
Продолжительность промежутка : 40 мс. (1,00 видеокадр)
Время предзагрузки промежутка : 500 мс.
picpicpic
Для увеличения картинки щелкните мышкой по превью

Этот торрент недоступен для скачивания без регистрации, однако доступен по публичной magnet-ссылке (источники с публичных трекеров). Перед использованием ссылки прочтите, пожалуйста Пользовательское соглашение, а также как можно дольше оставайтесь на раздаче! Для того, чтобы скачать сам торрент-файл (который видит больше источников), а также для того, чтобы поблагодарить релизера, вам необходимо зарегистрироваться. Если регистрироваться лень - вы можете также попробовать скачать релиз по нашим партнерским ссылкам ниже.

[underverse.su].t59259.torrent
Трекер: Зарегистрирован   [ 19.10.2015 08:49 ]  

Статус: проверено (by makkol at 19.10.2015 10:00)
Поблагодарили: пока никто не поблагодарил...
Тип торрента: публичный - доступные источники с открытых трекеров: 
Размер: 3,94 GB (занимает 0,9 DVDR, для записи нужно 1 болванка DVDR/RW)
 
 
Похожие темы
Форум Тема Автор Торрент Отв. Посл. сооб.
Зарубежное кино [DVDRip, Low-Res HDRip, и т.д.] Больше чем секс / No Strings Attached (Айвен Райтман) [2011, Мелодрама, Комедия, HDRip] SeRGun1a
0 | 0

1 | 1763

10

25.04.2011 04:10

Зарубежное кино [DVDRip, Low-Res HDRip, и т.д.] Больше чем секс / No Strings Attached (Айвен Райтман) [2011 г., мелодрама, комедия, BDRip] RG NewCinema
0 | 0

0 | 1054

10

19.06.2011 16:42

Зарубежное кино [DVD / HDDVD / BD / Remux] Больше чем секс / No Strings Attached (Айвен Райтман / Ivan Reitman) [2011, мелодрама, комедия, BDRemux] DUB R5 + Original (eng) + ukr + Sub (multi) uzi2009
0 | 0

0 | 1231

5

15.02.2014 21:09



Последний раз редактировалось: Alexz9 (19.10.2015 09:49), всего редактировалось 1 раз

19-Окт-2015 09:04

Топик был перенесен из форума Зарубежное кино [DVDRip, Low-Res HDRip, и т.д.] в форум National Geographic


makkol
 

makkol Пол:Муж

19-Окт-2015 09:22

В релизе обязательна должна быть обложка (постер). Если таковой не найдётся, в качестве неё можно использовать кадр с названием фильма. Вот, полминуты поиска в гуглкартинках, можете использовать http://u.to/ClHCDA
И ещё, вы уверены в одноголосом любительском переводе? Нашёл другой источник с такой-же раздачей, там указан перевод - дублированный.

Яндекс.Метрика powered by Sphinx


В Н И М А Н И Е
Сайт не распространяет и не хранит электронные версии произведений, а лишь бесплатно и без коммерческой выгоды (не требуя взамен платы,
SMS и т.д.) предоставляет доступ к создаваемому пользователями каталогу ссылок на торрент-файлы, которые содержат только списки хеш-сумм.
Убедительная просьба с жалобами обращаться напрямую к пользователю, разместившему торрент файл.

Вверх