Loading...
Error

Артур, Мерлин и Прихлики / Artus, Merlin a Prchlici (Вера Шимкова-Пливова, Драгомира Кралова) [1995 г., приключения, семейный, DVDRip] VO + Original

Статистика раздачи
Размер:  771 MB   |    Зарегистрирован:  1 год 1 месяц   |    Скачан:  4 раза

Полного источника не было: 10 месяцев

Сидов:  0  |  0 KB/s  ]   Личеров:  0  |  0 KB/s  ]

* - сиды/пиры с внешних источников

   
 
Автор Сообщение

makkol Пол:Муж

18-Окт-2015 23:46

Артур, Мерлин и Прихлики / Artus, Merlin a Prchlici


Год выпуска: 1995
Жанр: приключения, семейный
Производство: Чехия [Barrandov Studios]
Режиссер: Вера Шимкова-Пливова, Драгомира Кралова
В ролях: Валери Капланова, Павел Новы, Вероника Еникова, Вероника Филипова, Люси Чехова, Збынек Носал, Магдалена Рейфова, Ростислав Марек, Мартин Юрцик, Камиль Пулец, Лукас Янота, Михал Вачек, Люси Славикова, Катка Присцкова
Сюжет фильма:
Все началось с того, как бабушка, оставшись дома одна, впустила чужого далматина, приняв его за своего, Артура. Вернувшийся домой Артур не желает делить с чужаком хозяев. Семейство Прихликов пытается подыскать хозяина псу, окрестив его Мерлином, под впечатлением от прочитанных легенд про короля Артура. А пока Мерлин живет у них, создавая массу проблем своим поведением. Вопреки его разрушительной деятельности, дети привязываются к Мерлину, не меньше, чем к Артуру, и, узнав, что ему грозит беда, спасают пса от жестокого живодера. Удастся ли детям убедить родителей оставить Мерлина...

Качество видео: DVDRip

Продолжительность: 01:16:23
Формат: AVI
Видео: XviD, 624x464 (4:3), 25.000 fps, 1133 kbps
Аудио #1: русский, любительский одноголосый закадровый, MP3 2.0, 48 kHz, 128 kbps
Аудио #2: чешский, оригинал, MP3 2.0, 48 kHz, 128 kbps

Код:

Общее
Полное имя                               : artus.merlin.a.prchlici.[rus_by_slay73].avi
Формат                                   : AVI
Формат/Информация                        : Audio Video Interleave
Размер файла                             : 771 Мбайт
Продолжительность                        : 1 ч. 16 м.
Общий поток                              : 1411 Кбит/сек
Программа кодирования                    : VirtualDubModRus 1.5.10.2 (build 2540/release)
Библиотека кодирования                   : VirtualDubMod build 2540/release

Видео
Идентификатор                            : 0
Формат                                   : MPEG-4 Visual
Профиль формата                          : Advanced Simple@L5
Параметр BVOP формата                    : 2
Параметр QPel формата                    : Нет
Параметр GMC формата                     : Без точки перехода
Параметр матрицы формата                 : Default (H.263)
Режим смешивания                         : Сжатый битовый поток
Идентификатор кодека                     : XVID
Идентификатор кодека/Подсказка           : XviD
Продолжительность                        : 1 ч. 16 м.
Битрейт                                  : 1140 Кбит/сек
Ширина                                   : 624 пикселя
Высота                                   : 464 пикселя
Соотношение сторон                       : 4:3
Частота кадров                           : 25,000 кадров/сек
Цветовое пространство                    : YUV
Субдискретизация насыщенности            : 4:2:0
Битовая глубина                          : 8 бит
Тип развёртки                            : Прогрессивная
Метод сжатия                             : С потерями
Бит/(Пиксели*Кадры)                      : 0.158
Размер потока                            : 623 Мбайт (81%)
Библиотека кодирования                   : XviD 1.2.1 (UTC 2008-12-04)

Аудио #1
Идентификатор                            : 1
Формат                                   : MPEG Audio
Версия формата                           : Version 1
Профиль формата                          : Layer 3
Режим                                    : Joint stereo
Расширение режима                        : MS Stereo
Идентификатор кодека                     : 55
Идентификатор кодека/Подсказка           : MP3
Продолжительность                        : 1 ч. 16 м.
Вид битрейта                             : Постоянный
Битрейт                                  : 128 Кбит/сек
Каналы                                   : 2 канала
Частота                                  : 48,0 КГц
Метод сжатия                             : С потерями
Размер потока                            : 69,9 Мбайт (9%)
Выравнивание                             : Соединение по промежуткам
Продолжительность промежутка             : 40  мс. (1,00 видеокадр)
Время предзагрузки промежутка            : 504  мс.

Аудио #2
Идентификатор                            : 2
Формат                                   : MPEG Audio
Версия формата                           : Version 1
Профиль формата                          : Layer 3
Режим                                    : Joint stereo
Идентификатор кодека                     : 55
Идентификатор кодека/Подсказка           : MP3
Продолжительность                        : 1 ч. 16 м.
Вид битрейта                             : Постоянный
Битрейт                                  : 128 Кбит/сек
Каналы                                   : 2 канала
Частота                                  : 48,0 КГц
Метод сжатия                             : С потерями
Размер потока                            : 69,9 Мбайт (9%)
Выравнивание                             : Соединение по промежуткам
Продолжительность промежутка             : 40  мс. (1,00 видеокадр)
Время предзагрузки промежутка            : 504  мс.
Перевод: Роман Зайцев
Озвучка: Вячеслав Прошин
Работа с видео и звуком: Darth_47
Релиз:
picpicpicpicpic
Для увеличения картинки щелкните мышкой по превью

Этот торрент недоступен для скачивания без регистрации, однако доступен по публичной magnet-ссылке (источники с публичных трекеров). Перед использованием ссылки прочтите, пожалуйста Пользовательское соглашение, а также как можно дольше оставайтесь на раздаче! Для того, чтобы скачать сам торрент-файл (который видит больше источников), а также для того, чтобы поблагодарить релизера, вам необходимо зарегистрироваться. Если регистрироваться лень - вы можете также попробовать скачать релиз по нашим партнерским ссылкам ниже.

[underverse.su].t59256.torrent
Трекер: Зарегистрирован   [ 18.10.2015 23:46 ]  

Статус: проверено (by makkol at 22.10.2015 14:48)
Поблагодарили: 1 человек
Тип торрента: публичный - доступные источники с открытых трекеров: 
Размер: 771 MB (занимает 0,17 DVDR, для записи нужно 1 болванка DVDR/RW)
 
 

Яндекс.Метрика powered by Sphinx


В Н И М А Н И Е
Сайт не распространяет и не хранит электронные версии произведений, а лишь бесплатно и без коммерческой выгоды (не требуя взамен платы,
SMS и т.д.) предоставляет доступ к создаваемому пользователями каталогу ссылок на торрент-файлы, которые содержат только списки хеш-сумм.
Убедительная просьба с жалобами обращаться напрямую к пользователю, разместившему торрент файл.

Вверх