Loading...
Error

Армия Бранкалеоне / L'Armata Brancaleone (Марио Моничелли) [1966 г., комедия, приключения, DVDRip] AVO + Original

Статистика раздачи
Размер:  1,56 GB   |    Зарегистрирован:  1 год 1 месяц   |    Скачан:  10 раз

Полного источника не было: 11 месяцев

Сидов:  0  |  0 KB/s  ]   Личеров:  0  |  0 KB/s  ]

* - сиды/пиры с внешних источников

   
 
Автор Сообщение

makkol Пол:Муж

18-Окт-2015 13:28

Армия Бранкалеоне / L'Armata Brancaleone


Год выпуска: 1966
Жанр: комедия, приключения
Производство: Италия , Франция , Испания [Fair Film, Les Films Marceau, Vertice Film]
Режиссер: Марио Моничелли
В ролях: Витторио Гассман, Катрин Спаак, Фолько Люлли, Джан Мария Волонте, Мария Грация Буччелла, Барбара Стил, Энрико Мария Салерно, Карло Пизакане, Уго Фангареджи, Джанлуиджи Кресченци, Пиппо Старнацца, Луиджи Санджорджи, Фульвия Франко, Тито Гарсия, Хоакин Диаз, Луис Индуни, Карлос Ронда, Хуан С. Карлос, Альфио Кальтабиано
Сюжет фильма:
В руках шайки проходимцев оказывается документ, дающий его обладателю право на земли в южной части Италии. Чтобы воспользоваться выпавшим на их долю шансом, они избирают своим предводителем рыцаря по имени Бранколеоне и отправляются в путешествие, полное приключений и опасностей…

  • Мировая премьера: 7 апреля 1966


Качество видео: DVDRip

Продолжительность: 01:54:42
Формат: AVI
Видео: XviD, 592x320 (1.85:1), 25.000 fps, 1748 kbps
Аудио #1: русский, авторский одноголосый закадровый (Александр Букреев), MP3 2.0, 44.1 kHz, 128 kbps
Аудио #2: итальянский, оригинал, MP3 (mono), 48 kHz, ~59 kbps

Код:

Общее
Полное имя                               : L'Armata Brancaleone_RUS.avi
Формат                                   : AVI
Формат/Информация                        : Audio Video Interleave
Размер файла                             : 1,56 Гбайт
Продолжительность                        : 1 ч. 54 м.
Режим общего битрейта                    : Переменный
Общий поток                              : 1950 Кбит/сек
Программа кодирования                    : VirtualDubModRus 1.5.10.2 (build 2542/release)
Библиотека кодирования                   : VirtualDubMod build 2542/release

Видео
Идентификатор                            : 0
Формат                                   : MPEG-4 Visual
Профиль формата                          : Advanced Simple@L5
Параметр BVOP формата                    : 2
Параметр QPel формата                    : Нет
Параметр GMC формата                     : Без точки перехода
Параметр матрицы формата                 : Default (MPEG)
Идентификатор кодека                     : XVID
Идентификатор кодека/Подсказка           : XviD
Продолжительность                        : 1 ч. 54 м.
Битрейт                                  : 1748 Кбит/сек
Ширина                                   : 592 пикселя
Высота                                   : 320 пикселей
Соотношение сторон                       : 1,85:1
Частота кадров                           : 25,000 кадров/сек
Цветовое пространство                    : YUV
Субдискретизация насыщенности            : 4:2:0
Битовая глубина                          : 8 бит
Тип развёртки                            : Прогрессивная
Метод сжатия                             : С потерями
Бит/(Пиксели*Кадры)                      : 0.369
Размер потока                            : 1,40 Гбайт (90%)
Библиотека кодирования                   : XviD 1.2.0.dev47 (UTC 2006-11-01)

Аудио #1
Идентификатор                            : 1
Формат                                   : MPEG Audio
Версия формата                           : Version 1
Профиль формата                          : Layer 3
Режим                                    : Joint stereo
Расширение режима                        : MS Stereo
Идентификатор кодека                     : 55
Идентификатор кодека/Подсказка           : MP3
Продолжительность                        : 1 ч. 54 м.
Вид битрейта                             : Постоянный
Битрейт                                  : 128 Кбит/сек
Каналы                                   : 2 канала
Частота                                  : 44,1 КГц
Метод сжатия                             : С потерями
Размер потока                            : 105 Мбайт (7%)
Выравнивание                             : Разделение по промежуткам
Продолжительность промежутка             : 40  мс. (1,00 видеокадр)
Время предзагрузки промежутка            : 500  мс.

Аудио #2
Идентификатор                            : 2
Формат                                   : MPEG Audio
Версия формата                           : Version 1
Профиль формата                          : Layer 3
Идентификатор кодека                     : 55
Идентификатор кодека/Подсказка           : MP3
Продолжительность                        : 1 ч. 54 м.
Продолжительность оригинала              : 1 ч. 54 м.
Вид битрейта                             : Переменный
Битрейт                                  : 59,7 Кбит/сек
Номинальный битрейт                      : 64,0 Кбит/сек
Каналы                                   : 1 канал
Частота                                  : 48,0 КГц
Метод сжатия                             : С потерями
Размер потока                            : 49,0 Мбайт (3%)
Выравнивание                             : Разделение по промежуткам
Продолжительность промежутка             : 40  мс. (1,00 видеокадр)
Время предзагрузки промежутка            : 500  мс.
Библиотека кодирования                   : LAME3.97
Настройки программы                      : -m m -V 4 -q 2 -lowpass 16.5 --abr 64
picpicpicpicpic
Для увеличения картинки щелкните мышкой по превью

Этот торрент недоступен для скачивания без регистрации, однако доступен по публичной magnet-ссылке (источники с публичных трекеров). Перед использованием ссылки прочтите, пожалуйста Пользовательское соглашение, а также как можно дольше оставайтесь на раздаче! Для того, чтобы скачать сам торрент-файл (который видит больше источников), а также для того, чтобы поблагодарить релизера, вам необходимо зарегистрироваться. Если регистрироваться лень - вы можете также попробовать скачать релиз по нашим партнерским ссылкам ниже.

[underverse.su].t59247.torrent
Трекер: Зарегистрирован   [ 18.10.2015 13:28 ]  

Статус: проверено (by makkol at 18.10.2015 13:31)
Поблагодарили: 1 человек
Тип торрента: публичный - доступные источники с открытых трекеров: 
Размер: 1,56 GB (занимает 0,36 DVDR, для записи нужно 1 болванка DVDR/RW)
 
 

makkol Пол:Муж

19-Окт-2015 11:11

От себя.
Очень смешной фильм с потрясающе остроумным переводом. Рекомендую всем желающим от души повеселиться.

MIHMEBIUS Пол:Муж

24-Окт-2015 07:51

сиды!!!!!!!! Вы где??????????? :( :( :( :cry:

Яндекс.Метрика powered by Sphinx


В Н И М А Н И Е
Сайт не распространяет и не хранит электронные версии произведений, а лишь бесплатно и без коммерческой выгоды (не требуя взамен платы,
SMS и т.д.) предоставляет доступ к создаваемому пользователями каталогу ссылок на торрент-файлы, которые содержат только списки хеш-сумм.
Убедительная просьба с жалобами обращаться напрямую к пользователю, разместившему торрент файл.

Вверх