Loading...
Error

Кунг-фу Кролик: Повелитель огня / Tu Xia Chuan Qi: Qing Li Chuan Shuo (Дейк Донг) [2015 г., мультфильм, комедия, приключения, семейный, WEB-DLRip] Dub

Статистика раздачи
Размер:  1,37 GB   |    Зарегистрирован:  1 год 1 месяц   |    Скачан:  54 раза

Полного источника не было: 2 месяца 12 дней

Сидов:  0  |  0 KB/s  ]   Личеров:  0  |  0 KB/s  ]

* - сиды/пиры с внешних источников

   
 
Автор Сообщение

makkol Пол:Муж

16-Окт-2015 22:01

Кунг-фу Кролик: Повелитель огня / Tu Xia Chuan Qi: Qing Li Chuan Shuo
«Убегающий тигр, спрятавшийся дракон»


Год выпуска: 2015
Жанр: мультфильм, комедия, приключения, семейный
Производство: Китай [Shanghai Toonmax Media Co]
Режиссер: Дейк Донг
Роли озвучивали: Юньвэй Хэ, Ли Хуанг
Сюжет фильма:
Победу в поединке сильнейших бойцов неожиданно одерживает неуклюжий с виду пушистый кролик, лучше других владеющий секретами древнего кунг-фу, после чего становится главным защитником деревни. Однако, не долго ему удается купаться в лучах славы и наслаждаться вниманием поклонников. Злодеи вознамерились выкрасть у кролика магический камень и тем самым лишить его силы. Сможет ли пушистый супергерой защитить деревню и противостоять злодеям без силы волшебного камня?

  • Мировая премьера: 21 февраля 2015
  • Российская премьера: 17 сентября 2015


Качество видео: WEB-DLRip

Продолжительность: 01:35:29
Формат: AVI
Видео: XviD, 720x304 (2.35:1), 24.000 fps, 1658 kbps
Аудио: русский, дублированный (iTunes), AC3 5.1, 48 kHz, 384 kbps

Код:

General
Complete name                            : Tu Xia Chuan Qi Qing Li Chuan Shuo WEB DLRip.D.2015.avi
Format                                   : AVI
Format/Info                              : Audio Video Interleave
File size                                : 1.37 GiB
Duration                                 : 1h 35mn
Overall bit rate                         : 2 052 Kbps
Movie name                               : Kung-fu.Krolik.Povelitel.ognja.2015.D.WEB-DLRip.ELEKTRI4KA.Uniongang.tv
Director                                 : ELEKTRI4KA
Writing application                      : VirtualDubMod 1.5.10.3 | www.virtualdub-fr.org || (build 2550/release)
Copyright                                : UNIONGANG&RUSTORRENTS

Video
ID                                       : 0
Format                                   : MPEG-4 Visual
Format profile                           : Advanced Simple@L5
Format settings, BVOP                    : 4
Format settings, QPel                    : No
Format settings, GMC                     : No warppoints
Format settings, Matrix                  : Default (H.263)
Codec ID                                 : XVID
Codec ID/Hint                            : XviD
Duration                                 : 1h 35mn
Bit rate                                 : 1 658 Kbps
Width                                    : 720 pixels
Height                                   : 304 pixels
Display aspect ratio                     : 2.35:1
Frame rate                               : 24.000 fps
Color space                              : YUV
Chroma subsampling                       : 4:2:0
Bit depth                                : 8 bits
Scan type                                : Progressive
Compression mode                         : Lossy
Bits/(Pixel*Frame)                       : 0.316
Stream size                              : 1.11 GiB (81%)
Writing library                          : XviD 73

Audio
ID                                       : 1
Format                                   : AC-3
Format/Info                              : Audio Coding 3
Mode extension                           : CM (complete main)
Format settings, Endianness              : Big
Codec ID                                 : 2000
Duration                                 : 1h 35mn
Bit rate mode                            : Constant
Bit rate                                 : 384 Kbps
Channel count                            : 6 channels
Channel positions                        : Front: L C R, Side: L R, LFE
Sampling rate                            : 48.0 KHz
Bit depth                                : 16 bits
Compression mode                         : Lossy
Stream size                              : 262 MiB (19%)
Alignment                                : Split accross interleaves
Interleave, duration                     : 42 ms (1.00 video frame)
Interleave, preload duration             : 500 ms
Релиз группы:

picpicpicpicpic
Для увеличения картинки щелкните мышкой по превью

Этот торрент недоступен для скачивания без регистрации, однако доступен по публичной magnet-ссылке (источники с публичных трекеров). Перед использованием ссылки прочтите, пожалуйста Пользовательское соглашение, а также как можно дольше оставайтесь на раздаче! Для того, чтобы скачать сам торрент-файл (который видит больше источников), а также для того, чтобы поблагодарить релизера, вам необходимо зарегистрироваться. Если регистрироваться лень - вы можете также попробовать скачать релиз по нашим партнерским ссылкам ниже.

[underverse.su].t59223.torrent
Трекер: Зарегистрирован   [ 16.10.2015 22:01 ]  

Статус: T временная (by makkol at 19.11.2015 23:34)
Поблагодарили: 3 человека
Тип торрента: публичный - доступные источники с открытых трекеров: 
Размер: 1,37 GB (занимает 0,31 DVDR, для записи нужно 1 болванка DVDR/RW)
 
 
Похожие темы
Форум Тема Автор Торрент Отв. Посл. сооб.
T Мультфильмы [HDDVDRip / BDRip / WEB-DL / HDTV 1080/720р] Кунг-фу Кролик: Повелитель огня / Tu Xia Chuan Qi: Qing Li Chuan Shuo (Дейк Донг) [2015 г., мультфильм, комедия, приключения, семейный, WEB-DL 1080p] Dub makkol
30 | 0

0 | 772

62

16.10.2015 22:12


Яндекс.Метрика powered by Sphinx


В Н И М А Н И Е
Сайт не распространяет и не хранит электронные версии произведений, а лишь бесплатно и без коммерческой выгоды (не требуя взамен платы,
SMS и т.д.) предоставляет доступ к создаваемому пользователями каталогу ссылок на торрент-файлы, которые содержат только списки хеш-сумм.
Убедительная просьба с жалобами обращаться напрямую к пользователю, разместившему торрент файл.

Вверх