Loading...
Error

Ватиканские записи / The Vatican Tapes (Марк Невелдайн) [2015 г., ужасы, триллер, HDRip] VO

Статистика раздачи
Размер:  1,37 GB   |    Зарегистрирован:  1 год 1 месяц   |    Скачан:  41 раз

Полного источника не было: 4 месяца 12 дней

Сидов:  0  |  0 KB/s  ]   Личеров:  0  |  0 KB/s  ]

* - сиды/пиры с внешних источников

   
 
Автор Сообщение

makkol Пол:Муж

16-Окт-2015 12:33

Ватиканские записи / The Vatican Tapes


Год выпуска: 2015
Жанр: ужасы, триллер
Производство: США [H2F Entertainment, Lakeshore Entertainment, Lionsgate, Pantelion Films]
Режиссер: Марк Невелдайн
В ролях: Кэтлин Робертсон, Майкл Пенья, Элисон Ломан, Джимон Хонсу, Дугрей Скотт, Майкл Паре, Джон Патрик Амедори, Оливия Тейлор Дадли, Темина Санни, Дэниэл Бернхард
Сюжет фильма:
Анжела Холмс жила обычной жизнью, пока внезапно не начала оказывать разрушительное воздействие на окружающих, причиняя людям серьезные, иногда смертельные травмы. Местный священник, отец Лозано, уверен в ее одержимости. Приглашенные для проведения сеанса экзорцизма кардиналы из Ватикана сталкиваются с древней сатанинской силой, большей, чем они могли себе представить.

  • Мировая премьера: 23 июля 2015
  • Российская премьера: 30 июля 2015


Качество видео: HDRip

Продолжительность: 01:30:52
Формат: AVI
Видео: XviD, 720x400 (16:9), 23.976 fps, 1704 kbps
Аудио: русский, любительский одноголосый закадровый, AC3 5.1, 48 kHz, 448 kbps

Код:

General
Complete name               : The.4atican.Tapes.2015xixidok.HDRip.ExKinoRay.avi
Format                      : AVI
Format/Info                 : Audio Video Interleave
File size                   : 1.37 GiB
Duration                    : 1h 30mn
Overall bit rate            : 2 161 Kbps
Writing application         : VirtualDubMod 1.5.10.2 (build 2540/release)
Writing library             : VirtualDubMod build 2540/release
Copyright                   : ExKinoRay

Video
ID                          : 0
Format                      : MPEG-4 Visual
Format profile              : Advanced Simple@L5
Format settings, BVOP       : 1
Format settings, QPel       : No
Format settings, GMC        : No warppoints
Format settings, Matrix     : Custom
Codec ID                    : XVID
Codec ID/Hint               : XviD
Duration                    : 1h 30mn
Bit rate                    : 1 704 Kbps
Width                       : 720 pixels
Height                      : 400 pixels
Display aspect ratio        : 16:9
Frame rate                  : 23.976 fps
Color space                 : YUV
Chroma subsampling          : 4:2:0
Bit depth                   : 8 bits
Scan type                   : Progressive
Compression mode            : Lossy
Bits/(Pixel*Frame)          : 0.247
Stream size                 : 1.08 GiB (79%)
Writing library             : XviD 73

Audio
ID                          : 1
Format                      : AC-3
Format/Info                 : Audio Coding 3
Mode extension              : CM (complete main)
Format settings, Endianness : Big
Codec ID                    : 2000
Duration                    : 1h 30mn
Bit rate mode               : Constant
Bit rate                    : 448 Kbps
Channel(s)                  : 6 channels
Channel positions           : Front: L C R, Side: L R, LFE
Sampling rate               : 48.0 KHz
Compression mode            : Lossy
Stream size                 : 291 MiB (21%)
Alignment                   : Split accross interleaves
Interleave, duration        : 42 ms (1.00 video frame)
Interleave, preload duratio : 500 ms
Rip by Enigma
Перевод: Enigma
Озвучка: Хихикающий доктор
Сведение звука: Sergei7721
Релиз группы:
picpicpicpicpic
Для увеличения картинки щелкните мышкой по превью

Этот торрент недоступен для скачивания без регистрации, однако доступен по публичной magnet-ссылке (источники с публичных трекеров). Перед использованием ссылки прочтите, пожалуйста Пользовательское соглашение, а также как можно дольше оставайтесь на раздаче! Для того, чтобы скачать сам торрент-файл (который видит больше источников), а также для того, чтобы поблагодарить релизера, вам необходимо зарегистрироваться. Если регистрироваться лень - вы можете также попробовать скачать релиз по нашим партнерским ссылкам ниже.

[underverse.su].t59199.torrent
Трекер: Зарегистрирован   [ 16.10.2015 12:33 ]  

Статус: проверено (by makkol at 18.10.2015 12:35)
Поблагодарили: пока никто не поблагодарил...
Тип торрента: публичный - доступные источники с открытых трекеров: 
Размер: 1,37 GB (занимает 0,31 DVDR, для записи нужно 1 болванка DVDR/RW)
 
 
Похожие темы
Форум Тема Автор Торрент Отв. Посл. сооб.
T Зарубежное кино [DVDRip, Low-Res HDRip, и т.д.] Ватиканские записи / The Vatican Tapes (Марк Невелдайн) [2015 г., ужасы, триллер, HDRip] Dub makkol
1 | 0

0 | 469

22

29.11.2015 22:39

Зарубежное кино [HDDVDRip / BDRip / WEB-DL / HDTV 1080/720р] Ватиканские записи / The Vatican Tapes (Марк Невелдайн) [2015 г., ужасы, триллер, BDRip 1080p] VO + Original makkol
12 | 0

0 | 572

22

16.10.2015 12:51

T Зарубежное кино [HDDVDRip / BDRip / WEB-DL / HDTV 1080/720р] Ватиканские записи / The Vatican Tapes (Марк Невелдайн) [2015 г., ужасы, триллер, BDRip 1080p] Dub + Original makkol
4 | 0

0 | 434

16

29.11.2015 22:49


Яндекс.Метрика powered by Sphinx


В Н И М А Н И Е
Сайт не распространяет и не хранит электронные версии произведений, а лишь бесплатно и без коммерческой выгоды (не требуя взамен платы,
SMS и т.д.) предоставляет доступ к создаваемому пользователями каталогу ссылок на торрент-файлы, которые содержат только списки хеш-сумм.
Убедительная просьба с жалобами обращаться напрямую к пользователю, разместившему торрент файл.

Вверх