Loading...
Error

Фарго / Fargo / Сезон 2 / (1-9 серии из 10) (Рэндолл Айнхорн, Адам Бернштейн, Колин Бакси) [2015 г., триллер, драма, криминал, WEB-DLRip] MVO + Original

Статистика раздачи
Размер:  5,4 GB   |    Зарегистрирован:  11 месяцев   |    Скачан:  6 раз

Полного источника не было: 16 дней

Сидов:  0  |  0 KB/s  ]   Личеров:  0  |  0 KB/s  ]

* - сиды/пиры с внешних источников

   
 
Автор Сообщение

older Пол:Муж

16-Окт-2015 07:57

Фарго / Fargo / Сезон 2


Год выпуска: 2015
Жанр: триллер, драма, криминал
Страна: США
Режиссер: Рэндолл Айнхорн, Адам Бернштейн, Колин Бакси
В ролях: Патрик Уилсон, Кирстен Данст, Джесси Племонс, Тед Дэнсон, Джин Смарт, Энгус Сэмпсон, Адам Аркин, Брэд Манн, Зан МакКларнон, Эмили Хейн, Кейр О'Доннелл, Жюль Хобсон, Анна Каммер
Сюжет фильма:
События разворачиваются в 1979 году в городах Су-Фолс (Южная Дакота) и Луверн (Миннесота). Молодой сержант национальной гвардии Лу Солверсон (Патрик Уилсон), недавно вернувшийся из Вьетнама, расследует дело, в котором переплелись местная банда, крупный мафиозный синдикат, косметолог Пегги Блумквист (Кирстен Данст) и ее муж Эд — помощник местного мясника. Распутать этот клубок Лу помогает шериф Хэнк Ларссон. В ходе расследования напарникам предстоит познакомиться с изрядным количеством незаурядных персонажей, как, например, юрист Карл Везерс — ветеран войны во Вьетнаме, пьяница, обладающий невероятным даром красноречия.

Качество видео: WEB-DLRip

Продолжительность: ~ 00:51:00
Формат: AVI
Видео: XviD, 720х400, 1169 kbps
Аудио #1: русский, многоголосый закадровый [профессиональный], MP3 2.0, 128 kbps
Аудио #2: английский, оригинал, MP3 2.0, 128 kbps

Код:

Общее
Полное имя                               : \Fargo (Season 02) NewStudio\Fargo.s02e01.WEBDLRip.NewStudio.avi
Формат                                   : AVI
Формат/Информация                        : Audio Video Interleave
Размер файла                             : 534 Мбайт
Продолжительность                        : 51 м.
Общий поток                              : 1439 Кбит/сек
Программа кодирования                    : VirtualDubMod 1.5.10.3 | www.virtualdub-fr.org || (build 2550/release)
Библиотека кодирования                   : VirtualDubMod build 2550/release

Видео
Идентификатор                            : 0
Формат                                   : MPEG-4 Visual
Профиль формата                          : Advanced Simple@L5
Параметр BVOP формата                    : 2
Параметр QPel формата                    : Нет
Параметр GMC формата                     : Без точки перехода
Параметр матрицы формата                 : Default (MPEG)
Идентификатор кодека                     : XVID
Идентификатор кодека/Подсказка           : XviD
Продолжительность                        : 51 м.
Битрейт                                  : 1169 Кбит/сек
Ширина                                   : 720 пикселей
Высота                                   : 400 пикселей
Соотношение сторон                       : 16:9
Частота кадров                           : 23,976 кадра/сек
Цветовое пространство                    : YUV
Субдискретизация насыщенности            : 4:2:0
Битовая глубина                          : 8 бит
Тип развёртки                            : Прогрессивная
Метод сжатия                             : С потерями
Бит/(Пиксели*Кадры)                      : 0.169
Размер потока                            : 434 Мбайт (81%)
Библиотека кодирования                   : XviD 73

Аудио #1
Идентификатор                            : 1
Формат                                   : MPEG Audio
Версия формата                           : Version 1
Профиль формата                          : Layer 3
Режим                                    : Joint stereo
Расширение режима                        : MS Stereo
Идентификатор кодека                     : 55
Идентификатор кодека/Подсказка           : MP3
Продолжительность                        : 51 м.
Вид битрейта                             : Постоянный
Битрейт                                  : 128 Кбит/сек
Каналы                                   : 2 канала
Частота                                  : 48,0 КГц
Метод сжатия                             : С потерями
Размер потока                            : 47,5 Мбайт (9%)
Выравнивание                             : Соединение по промежуткам
Продолжительность промежутка             : 42  мс. (1,00 видеокадр)
Время предзагрузки промежутка            : 504  мс.

Аудио #2
Идентификатор                            : 2
Формат                                   : MPEG Audio
Версия формата                           : Version 1
Профиль формата                          : Layer 3
Режим                                    : Joint stereo
Расширение режима                        : MS Stereo
Идентификатор кодека                     : 55
Идентификатор кодека/Подсказка           : MP3
Продолжительность                        : 51 м.
Вид битрейта                             : Постоянный
Битрейт                                  : 128 Кбит/сек
Каналы                                   : 2 канала
Частота                                  : 48,0 КГц
Метод сжатия                             : С потерями
Размер потока                            : 47,5 Мбайт (9%)
Выравнивание                             : Соединение по промежуткам
Продолжительность промежутка             : 42  мс. (1,00 видеокадр)
Время предзагрузки промежутка            : 504  мс.
Библиотека кодирования                   : LAME3.99.5UUUUUU / н·я

Внимание! Раздача ведётся путём добавления новых серий.
При каждом добавлении создаётся новый торрент. Чтобы начать докачку новой серии, пользователям необходимо сделать следующее:
1. Остановить скачивание.
2. Удалить старый торрент у себя из клиента (старые серии удалять не надо).
3. Скачать новый торрент и запустить его у себя в клиенте вместо старого, при этом указать клиенту путь в старую папку куда и должно происходить скачивание новых серий.
Ваш клиент при этом должен произвести хеширование (проверку) старой папки (если не производит сам - помогите ему сделать это), и будет докачивать только те серии которых у вас ещё нет. Старые серии при этом не удаляются, а продолжают раздаваться!
Если вы уже удалили старые серии, то предотвратить повторную закачку старых серий можно, отжав галочку в соответствующих местах при запуске нового торрента.
Релиз группы:

picpicpicpicpic
Для увеличения картинки щелкните мышкой по превью


11.12.15. Раздача обновлена!
Добавлена 9 серия.
Перекачайте торрент файл!

Этот торрент недоступен для скачивания без регистрации, однако доступен по публичной magnet-ссылке (источники с публичных трекеров). Перед использованием ссылки прочтите, пожалуйста Пользовательское соглашение, а также как можно дольше оставайтесь на раздаче! Для того, чтобы скачать сам торрент-файл (который видит больше источников), а также для того, чтобы поблагодарить релизера, вам необходимо зарегистрироваться. Если регистрироваться лень - вы можете также попробовать скачать релиз по нашим партнерским ссылкам ниже.

[underverse.su].t59197.torrent
Трекер: Зарегистрирован   [ 11.12.2015 11:46 ]  

Статус: T временная (by makkol at 11.12.2015 11:57)
Поблагодарили: 3 человека
Тип торрента: публичный - доступные источники с открытых трекеров: 
Размер: 5,4 GB (занимает 1,23 DVDR, для записи нужно 2 болванки DVDR/RW)
 
 
Похожие темы
Форум Тема Автор Торрент Отв. Посл. сооб.
Зарубежное кино [DVDRip, Low-Res HDRip, и т.д.] Фарго / Fargo (Джоэл Коэн / Joel Coen, Итэн Коэн / Ethan Coen) [1995 г., триллер, драма, криминал, HDRip] MVO (НТВ) 90ytr90
27 | 1

1 | 506

29

04.10.2015 16:01

Зарубежные сериалы Фарго / Fargo / Сезон 1 (1-10 серии из 10) (Рэндолл Айнхорн, Адам Бернштейн, Колин Бакси) [2014 г., триллер, драма, криминал, BDRip] MVO + Original older
23 | 2

0 | 611

17

07.09.2015 10:48

T Зарубежные сериалы Фарго / Fargo / Сезон 2 (1-6 серий из 10) (Мэтт Шекман, Скотт Уинант, Адам Бернштейн) [2015 г., Драма, криминал, WEB-DLRip] DVO (Кубик в Кубе) + Original ultarasbarcelona
6 | 0

0 | 470

2

23.11.2015 12:09



Последний раз редактировалось: older (11.12.2015 11:46), всего редактировалось 6 раз(а)

older Пол:Муж

21-Окт-2015 07:33

21.10.15. Раздача обновлена!
Добавлена 2 серия.
Перекачайте торрент файл!

older Пол:Муж

02-Ноя-2015 07:33

02.11.15. Раздача обновлена!
Добавлена 3 серия.
Перекачайте торрент файл!

older Пол:Муж

07-Ноя-2015 05:27

07.11.15. Раздача обновлена!
Добавлена 4 серия.
Перекачайте торрент файл!

older Пол:Муж

16-Ноя-2015 04:28

16.11.15. Раздача обновлена!
Добавлена 5 серия.
Перекачайте торрент файл!

older Пол:Муж

27-Ноя-2015 18:03

27.11.15. Раздача обновлена!
Добавлены 6-7 серии.
Перекачайте торрент файл!

older Пол:Муж

02-Дек-2015 13:47

02.12.15. Раздача обновлена!
Добавлена 8 серия.
Перекачайте торрент файл!

older Пол:Муж

11-Дек-2015 11:46

11.12.15. Раздача обновлена!
Добавлена 9 серия.
Перекачайте торрент файл!

Яндекс.Метрика powered by Sphinx


В Н И М А Н И Е
Сайт не распространяет и не хранит электронные версии произведений, а лишь бесплатно и без коммерческой выгоды (не требуя взамен платы,
SMS и т.д.) предоставляет доступ к создаваемому пользователями каталогу ссылок на торрент-файлы, которые содержат только списки хеш-сумм.
Убедительная просьба с жалобами обращаться напрямую к пользователю, разместившему торрент файл.

Вверх