Loading...
Error

Дрожь земли 5: Кровное родство / Tremors 5: Bloodlines (Дон Майкл Пол) [2015 г., ужасы, фантастика, боевик, HDRip] MVO

Статистика раздачи
Размер:  1,37 GB   |    Зарегистрирован:  1 год 1 месяц   |    Скачан:  49 раз

Полного источника не было: 26 дней

Сидов:  0  |  0 KB/s  ]   Личеров:  0  |  0 KB/s  ]

* - сиды/пиры с внешних источников

   
 
Автор Сообщение

makkol Пол:Муж

15-Окт-2015 13:21

Дрожь земли 5: Кровное родство / Tremors 5: Bloodlines


Год выпуска: 2015
Жанр: ужасы, фантастика, боевик
Производство: США [Universal 1440 Entertainment]
Режиссер: Дон Майкл Пол
В ролях: Майкл Гросс, Джейми Кеннеди, Эрнест Ндлову, Лоуренс Джофф, Зак Хендрикз, Натали Бекер, Эммануэль Кастис, Брэндон Оре, Дэниэл Дженкс, Джаррод Пинто
Сюжет фильма:
Гигантские черви-людоеды, известные как Грабоиды, терроризируют жителей Южной Африки. И самое страшное — это то, что Грабоиды со временем превратились в еще более опасных тварей…

  • Мировая премьера: 6 октября 2015


Качество видео: HDRip

Продолжительность: 01:39:02
Формат: AVI
Видео: XviD, 720x400 (16:9), 23.976 fps, 1529 kbps
Аудио: русский, любительский многоголосый закадровый, AC3 5.1, 48 kHz, 448 kbps

Код:

Format : AVI
Format/Info : Audio Video Interleave
File size : 1.37 GiB
Duration : 1h 39mn
Overall bit rate : 1 986 Kbps
Writing library : VirtualDub build 34753/release

Video
ID : 0
Format : MPEG-4 Visual
Format profile : Advanced Simple@L5
Format settings, BVOP : 2
Format settings, QPel : No
Format settings, GMC : No warppoints
Format settings, Matrix : Default (H.263)
Muxing mode : Packed bitstream
Codec ID : XVID
Codec ID/Hint : XviD
Duration : 1h 39mn
Bit rate : 1 529 Kbps
Width : 720 pixels
Height : 400 pixels
Display aspect ratio : 16:9
Frame rate : 23.976 fps
Color space : YUV
Chroma subsampling : 4:2:0
Bit depth : 8 bits
Scan type : Progressive
Compression mode : Lossy
Bits/(Pixel*Frame) : 0.221
Stream size : 1.06 GiB (77%)
Writing library : XviD 66

Audio
ID : 1
Format : AC-3
Format/Info : Audio Coding 3
Mode extension : CM (complete main)
Format settings, Endianness : Big
Codec ID : 2000
Duration : 1h 39mn
Bit rate mode : Constant
Bit rate : 448 Kbps
Channel(s) : 6 channels
Channel positions : Front: L C R, Side: L R, LFE
Sampling rate : 48.0 KHz
Bit depth : 16 bits
Compression mode : Lossy
Stream size : 317 MiB (23%)
Alignment : Aligned on interleaves
Interleave, duration : 42 ms (1.00 video frame)
Interleave, preload duration : 512 ms
Перевод: Anastassia Belle
Озвучивание: Райм, Баира, datynet, mazehacka, Андрей Циклис, Азат Саетов, Андрей Зверев
Звукорежиссёр: Ar_Dva
Релиз-группа:
picpicpicpicpic
Для увеличения картинки щелкните мышкой по превью

Этот торрент недоступен для скачивания без регистрации, однако доступен по публичной magnet-ссылке (источники с публичных трекеров). Перед использованием ссылки прочтите, пожалуйста Пользовательское соглашение, а также как можно дольше оставайтесь на раздаче! Для того, чтобы скачать сам торрент-файл (который видит больше источников), а также для того, чтобы поблагодарить релизера, вам необходимо зарегистрироваться. Если регистрироваться лень - вы можете также попробовать скачать релиз по нашим партнерским ссылкам ниже.

[underverse.su].t59183.torrent
Трекер: Зарегистрирован   [ 15.10.2015 13:21 ]  

Статус: проверено (by makkol at 18.10.2015 12:18)
Поблагодарили: 1 человек
Тип торрента: публичный - доступные источники с открытых трекеров: 
Размер: 1,37 GB (занимает 0,31 DVDR, для записи нужно 1 болванка DVDR/RW)
 
 
Похожие темы
Форум Тема Автор Торрент Отв. Посл. сооб.
Зарубежное кино [DVDRip, Low-Res HDRip, и т.д.] Дрожь земли 5: Кровное родство / Tremors 5: Bloodlines (Дон Майкл Пол) [2015 г., ужасы, фантастика, боевик, HDRip] Dub makkol
36 | 0

0 | 888

16

27.03.2016 23:28

Зарубежное кино [HDDVDRip / BDRip / WEB-DL / HDTV 1080/720р] Дрожь земли 5: Кровное родство / Tremors 5: Bloodlines (Дон Майкл Пол) [2015 г., ужасы, фантастика, боевик, BDRip 720p] MVO + Original makkol
98 | 2

0 | 529

35

15.10.2015 13:33

Зарубежное кино [HDDVDRip / BDRip / WEB-DL / HDTV 1080/720р] Дрожь земли 5: Кровное родство / Tremors 5: Bloodlines (Дон Майкл Пол) [2015 г., ужасы, фантастика, боевик, BDRip 1080p] Dub + Original + Subs makkol
11 | 1

0 | 844

9

27.03.2016 23:41

Зарубежное кино [HDDVDRip / BDRip / WEB-DL / HDTV 1080/720р] Дрожь земли 5: Кровное родство / Tremors 5: Bloodlines (Дон Майкл Пол) [2015 г., ужасы, фантастика, боевик, BDRip 720p] Dub + Original + Subs makkol
10 | 0

0 | 841

7

28.03.2016 11:54


Яндекс.Метрика powered by Sphinx


В Н И М А Н И Е
Сайт не распространяет и не хранит электронные версии произведений, а лишь бесплатно и без коммерческой выгоды (не требуя взамен платы,
SMS и т.д.) предоставляет доступ к создаваемому пользователями каталогу ссылок на торрент-файлы, которые содержат только списки хеш-сумм.
Убедительная просьба с жалобами обращаться напрямую к пользователю, разместившему торрент файл.

Вверх