Loading...
Error

Последние девушки / The Final Girls (Тодд Штраус-Шульсон) [2015 г., ужасы, комедия, WEB-DLRip] VO

Статистика раздачи
Размер:  1,37 GB   |    Зарегистрирован:  1 год 1 месяц   |    Скачан:  14 раз

Полного источника не было: 6 месяцев

Сидов:  0  |  0 KB/s  ]   Личеров:  0  |  0 KB/s  ]

* - сиды/пиры с внешних источников

   
 
Автор Сообщение

makkol Пол:Муж

14-Окт-2015 22:40

Последние девушки / The Final Girls


Год выпуска: 2015
Жанр: ужасы, комедия
Производство: США [Groundswell Productions, Studio Solutions]
Режиссер: Тодд Штраус-Шульсон
В ролях: Нина Добрев, Таисса Фармига, Малин Акерман, Александр Людвиг, Алиа Шокат, Хлоя Бриджес, Адам Дивайн, Анджела Тримбур, Томас Миддлдитч, Джеки Таттл
Сюжет фильма:
В центре событий — девушка, тяжело переживающая смерть матери, которая в 80-е была звездой слэшеров. В годовщину её смерти по странному стечению обстоятельств Макс с друзьями оказывается в одном из этих фильмов. Теперь они вместе должны противостоять преследующему их маньяку.

  • Мировая премьера: 13 марта 2015


Перевод: Newrussubs
Озвучивание: datynet

Качество видео: WEB-DLRip

Продолжительность: 01:31:34
Формат: AVI
Видео: XviD, 720x304 (2.35:1), 23.976 fps, 1934 kbps
Аудио: русский, любительский одноголосый закадровый, MP3 2.0, 44.1 kHz, 192 kbps

Код:

General
Complete name               : The.Final.Girls.2015.L1.WEB-DLRip.avi
Format                      : AVI
Format/Info                 : Audio Video Interleave
File size                   : 1.37 GiB
Duration                    : 1h 31mn
Overall bit rate            : 2 135 Kbps
Writing application         : VirtualDubMod 1.5.10.3 | www.virtualdub-fr.org || (build 2550/release)
Writing library             : VirtualDubMod build 2550/release

Video
ID                          : 0
Format                      : MPEG-4 Visual
Format profile              : Advanced Simple@L5
Format settings, BVOP       : 1
Format settings, QPel       : No
Format settings, GMC        : No warppoints
Format settings, Matrix     : Custom
Codec ID                    : XVID
Codec ID/Hint               : XviD
Duration                    : 1h 31mn
Bit rate                    : 1 934 Kbps
Width                       : 720 pixels
Height                      : 304 pixels
Display aspect ratio        : 2.35:1
Frame rate                  : 23.976 fps
Color space                 : YUV
Chroma subsampling          : 4:2:0
Bit depth                   : 8 bits
Scan type                   : Progressive
Compression mode            : Lossy
Bits/(Pixel*Frame)          : 0.368
Stream size                 : 1.24 GiB (91%)
Writing library             : XviD 73

Audio
ID                          : 1
Format                      : MPEG Audio
Format version              : Version 1
Format profile              : Layer 3
Codec ID                    : 55
Codec ID/Hint               : MP3
Duration                    : 1h 31mn
Bit rate mode               : Constant
Bit rate                    : 192 Kbps
Channel(s)                  : 2 channels
Sampling rate               : 44.1 KHz
Compression mode            : Lossy
Stream size                 : 126 MiB (9%)
Alignment                   : Split accross interleaves
Interleave, duration        : 42 ms (1.00 video frame)
Interleave, preload duratio : 500 ms
picpicpicpicpic
Для увеличения картинки щелкните мышкой по превью

Этот торрент недоступен для скачивания без регистрации, однако доступен по публичной magnet-ссылке (источники с публичных трекеров). Перед использованием ссылки прочтите, пожалуйста Пользовательское соглашение, а также как можно дольше оставайтесь на раздаче! Для того, чтобы скачать сам торрент-файл (который видит больше источников), а также для того, чтобы поблагодарить релизера, вам необходимо зарегистрироваться. Если регистрироваться лень - вы можете также попробовать скачать релиз по нашим партнерским ссылкам ниже.

[underverse.su].t59178.torrent
Трекер: Зарегистрирован   [ 14.10.2015 22:40 ]  

Статус: проверено (by makkol at 16.10.2015 14:39)
Поблагодарили: пока никто не поблагодарил...
Тип торрента: публичный - доступные источники с открытых трекеров: 
Размер: 1,37 GB (занимает 0,31 DVDR, для записи нужно 1 болванка DVDR/RW)
 
 
Похожие темы
Форум Тема Автор Торрент Отв. Посл. сооб.
Зарубежное кино [DVDRip, Low-Res HDRip, и т.д.] Последние дни Эммы Бланк / De laatste dagen van Emma Blank (Алекс Ван Вармердам) [2009 г., черная комедия, драма, DVDRip] Joey
1 | 0

6 | 2045

43

30.08.2012 20:56

Зарубежное кино [DVDRip, Low-Res HDRip, и т.д.] Последние каникулы 2: Весенняя лихорадка / Cabin Fever 2: Spring Fever (Тай Уэст) [2009 г., ужасы, триллер, HDRip] MVO DarkAngel
3 | 0

0 | 795

14

07.12.2012 16:18

Зарубежное кино [DVDRip, Low-Res HDRip, и т.д.] Последние добрые слова / Last Kind Words (Кевин Баркер) [2012 г., триллер, драма, детектив, WEB-DLRip] DVO [DeadSno & den904] RG NewCinema
11 | 0

0 | 904

11

03.06.2013 08:00

Зарубежное кино [DVDRip, Low-Res HDRip, и т.д.] Последние дни на Марсе / The Last Days on Mars (Рори Робинсон) [2013 г., фантастика, триллер, WEB-DLRip] VO (den904) + Original 90ytr90
0 | 3

0 | 1867

62

05.11.2013 14:07

Зарубежное кино [DVDRip, Low-Res HDRip, и т.д.] Последние дни на Марсе / The Last Days on Mars (Рори Робинсон) [2013 г., фантастика, триллер, HDRip] VO (den904) 90ytr90
11 | 0

0 | 2352

112

20.02.2014 09:41

Зарубежное кино [DVDRip, Low-Res HDRip, и т.д.] Последние дни на Марсе / The Last Days on Mars (Рори Робинсон) [2013 г., Ужасы, Фантастика, Триллер, BDRip-AVC] MVO (RUS) + VO (den904) + Original (ENG) + Subs (RUS, ENG) Ведьмочка
9 | 0

0 | 672

7

30.08.2014 01:36

Зарубежное кино [DVDRip, Low-Res HDRip, и т.д.] Последние дни на Марсе / The Last Days on Mars (Рори Робинсон) [2013 г., Ужасы, Фантастика, Триллер, BDRip-AVC] MVO (RUS) + Original (ENG) + Subs (RUS, ENG) Ведьмочка
3 | 3

0 | 874

31

30.08.2014 01:41

T Зарубежное кино [DVDRip, Low-Res HDRip, и т.д.] Последние часы / These Final Hours (Зак Хилдитч / Zak Hilditch) [2013 г., фантастика, триллер, драма, HDRip] MVO (чистый звук) 90ytr90
3 | 0

0 | 617

29

02.01.2015 19:26

T Зарубежное кино [DVDRip, Low-Res HDRip, и т.д.] Последние часы / These Final Hours (Зак Хилдитч / Zak Hilditch) [2013 г., фантастика, триллер, драма, HDRip-AVC] MVO (чистый звук) + Original (Eng) 90ytr90
59 | 0

0 | 617

18

02.01.2015 19:36

T Зарубежное кино [DVDRip, Low-Res HDRip, и т.д.] Последние рыцари / Last Knights (Казуаки Кирия) [2015 г., боевик, приключения, WEB-DLRip] Dub [Чистый звук] Паукан
23 | 0

0 | 983

86

07.04.2015 12:33


Яндекс.Метрика powered by Sphinx


В Н И М А Н И Е
Сайт не распространяет и не хранит электронные версии произведений, а лишь бесплатно и без коммерческой выгоды (не требуя взамен платы,
SMS и т.д.) предоставляет доступ к создаваемому пользователями каталогу ссылок на торрент-файлы, которые содержат только списки хеш-сумм.
Убедительная просьба с жалобами обращаться напрямую к пользователю, разместившему торрент файл.

Вверх