Loading...
Error

Призыв 2: Паранормальные явления / The Invoking 2 (Джэми Девольф, Джей Холбен, Кори Норман) [2015 г., ужасы, WEB-DLRip] DVO + Original

Статистика раздачи
Размер:  1,36 GB   |    Зарегистрирован:  1 год 1 месяц   |    Скачан:  9 раз

Полного источника не было: 6 месяцев

Сидов:  0  |  0 KB/s  ]   Личеров:  0  |  0 KB/s  ]

* - сиды/пиры с внешних источников

   
 
Автор Сообщение

makkol Пол:Муж

14-Окт-2015 13:01

Призыв 2: Паранормальные явления / The Invoking 2
«Мертвецы никогда не отдыхают»


Год выпуска: 2015
Жанр: ужасы
Производство: США [RLJ Entertainment, Ruthless Pictures]
Режиссер: Джэми Девольф, Джей Холбен, Кори Норман
В ролях: Эндрю Флеминг, Джессика Фратус. Чара Виктория Ганнетт, Аллен Лоуман, Меган МакНикол, Эрик Муди, Эндрю Сойер
Сюжет фильма:
Несмотря на то, что каждый год происходят сотни тревожных паранормальных событий, большинство из которых леденят кровь и будоражат воображение, они остаются незафиксированными и неизвестными обывателям. Это свидетельства о невыразимом ужасе противостоящих друг другу сил, демонических убийственных полтергейстов и других злых сущностей, которые решительно настроены на получение сатисфакции за свои страдания. Данный фильм - сборник историй, в которых люди погружаются в бездну, где кровожадные злобные духи стремятся завладеть своей добычей, и, во что бы то ни стало, утащить их, вопящих, за ноги, в самую бездну ада.

  • Мировая премьера: 6 октября 2015


Перевод: chup
Озвучивание: den904 & DeadSno (2D)

Качество видео: WEB-DLRip

Продолжительность: 01:23:21
Формат: AVI
Видео: XviD, 720x304 (2.35:1), 23.976 fps, 1873 kbps
Аудио #1: русский, любительский двухголосый закадровый, AC3 2.0, 48 kHz, 192 kbps
Аудио #2: английский, оригинал, AC3 5.1, 48 kHz, 256 kbps

Код:

Общее
Полное имя : The.Invoking.2.2015.L2.WEB-DLRip.avi
Формат : AVI
Формат/Информация : Audio Video Interleave
Размер файла : 1,36 Гбайт
Продолжительность : 1 ч. 23 м.
Общий поток : 2335 Кбит/сек
Программа кодирования : VirtualDubMod 1.5.10.3 | www.virtualdub-fr.org || (build 2550/release)
Библиотека кодирования : VirtualDubMod build 2550/release

Видео
Идентификатор : 0
Формат : MPEG-4 Visual
Профиль формата : Advanced Simple@L5
Параметр BVOP формата : 2
Параметр QPel формата : Нет
Параметр GMC формата : Без точки перехода
Параметр матрицы формата : Default (H.263)
Идентификатор кодека : XVID
Идентификатор кодека/Подсказка : XviD
Продолжительность : 1 ч. 23 м.
Битрейт : 1873 Кбит/сек
Ширина : 720 пикселей
Высота : 304 пикселя
Соотношение сторон : 2,35:1
Частота кадров : 23,976 кадра/сек
Цветовое пространство : YUV
Субдискретизация насыщенности : 4:2:0
Битовая глубина : 8 бит
Тип развёртки : Прогрессивная
Метод сжатия : С потерями
Бит/(Пиксели*Кадры) : 0.357
Размер потока : 1,09 Гбайт (80%)
Библиотека кодирования : XviD 73

Аудио #1
Идентификатор : 1
Формат : AC-3
Формат/Информация : Audio Coding 3
Расширение режима : CM (complete main)
Параметр Endianness формата : Big
Идентификатор кодека : 2000
Продолжительность : 1 ч. 23 м.
Вид битрейта : Постоянный
Битрейт : 192 Кбит/сек
Каналы : 2 канала
Расположение каналов : Front: L R
Частота : 48,0 КГц
Битовая глубина : 16 бит
Метод сжатия : С потерями
Размер потока : 114 Мбайт (8%)
Выравнивание : Разделение по промежуткам
Продолжительность промежутка : 42 мс. (1,00 видеокадр)
Время предзагрузки промежутка : 500 мс.

Аудио #2
Идентификатор : 2
Формат : AC-3
Формат/Информация : Audio Coding 3
Расширение режима : CM (complete main)
Параметр Endianness формата : Big
Идентификатор кодека : 2000
Продолжительность : 1 ч. 23 м.
Вид битрейта : Постоянный
Битрейт : 256 Кбит/сек
Каналы : 6 каналов
Расположение каналов : Front: L C R, Side: L R, LFE
Частота : 48,0 КГц
Битовая глубина : 16 бит
Метод сжатия : С потерями
Размер потока : 153 Мбайт (11%)
Выравнивание : Разделение по промежуткам
Продолжительность промежутка : 42 мс. (1,00 видеокадр)
Время предзагрузки промежутка : 500 мс.
picpicpicpicpic
Для увеличения картинки щелкните мышкой по превью

Этот торрент недоступен для скачивания без регистрации, однако доступен по публичной magnet-ссылке (источники с публичных трекеров). Перед использованием ссылки прочтите, пожалуйста Пользовательское соглашение, а также как можно дольше оставайтесь на раздаче! Для того, чтобы скачать сам торрент-файл (который видит больше источников), а также для того, чтобы поблагодарить релизера, вам необходимо зарегистрироваться. Если регистрироваться лень - вы можете также попробовать скачать релиз по нашим партнерским ссылкам ниже.

[underverse.su].t59173.torrent
Трекер: Зарегистрирован   [ 14.10.2015 13:01 ]  

Статус: проверено (by makkol at 16.10.2015 14:31)
Поблагодарили: 1 человек
Тип торрента: публичный - доступные источники с открытых трекеров: 
Размер: 1,36 GB (занимает 0,31 DVDR, для записи нужно 1 болванка DVDR/RW)
 
 

Яндекс.Метрика powered by Sphinx


В Н И М А Н И Е
Сайт не распространяет и не хранит электронные версии произведений, а лишь бесплатно и без коммерческой выгоды (не требуя взамен платы,
SMS и т.д.) предоставляет доступ к создаваемому пользователями каталогу ссылок на торрент-файлы, которые содержат только списки хеш-сумм.
Убедительная просьба с жалобами обращаться напрямую к пользователю, разместившему торрент файл.

Вверх