Loading...
Error

Плохое поведение / Behaving Badly (Тим Гаррик) [2014 г., комедия, HDRip] MVO

Статистика раздачи
Размер:  1,46 GB   |    Зарегистрирован:  1 год 1 месяц   |    Скачан:  21 раз

Полного источника не было: 8 дней

Сидов:  0  |  0 KB/s  ]   Личеров:  0  |  0 KB/s  ]

* - сиды/пиры с внешних источников

   
 
Автор Сообщение

makkol Пол:Муж

13-Окт-2015 23:07

Плохое поведение / Behaving Badly


Год выпуска: 2014
Жанр: комедия
Производство: США [Mad Chance, Starboard Entertainment]
Режиссер: Тим Гаррик
В ролях: Нат Вулф, Селена Гомес, Мэри-Луиз Паркер, Элизабет Шу, Дилан МакДермотт, Джейсон Ли, Хэзер Грэм, Кэри Элвис, Патрик Варбертон, Лачлан Бьюкэнэн
Сюжет фильма:
Жизнь подростка итак тяжела, особенно если тебе 16, и ты не находишься на вершине школьной популярности. Рик Стивенсон влюблён в свою одноклассницу, и единственное о чём мечтает парень так это об отношениях с Ниной. Но юноша прекрасно понимает, что заполучить такую девушку, ему попросту не светит. Если конечно, он не поменяет своё амплуа, и из застенчивого парня не превратится в настоящего плохого мальчика, знающего, что такое недопустимое поведение. Превращение Рика идёт постепенно. По мере развития сюжетной линии, он встречается с новыми пассиями, и пытается получить как можно больше сексуального опыта, в разнообразных проявлениях. Подобный отрыв, конечно, приводит юношу в различные ситуации, полные комичных моментов и даже проблем с законом. Но Рик не собирается останавливаться. Ведь Нина уже знает его имя, и они учатся в одном классе. Остаётся лишь немного отойти от правил хорошего тона, и начать вести себя как импульсивный молодой человек. И, пока Нина считается девушкой-мечтой, со всех сторон на юношу сыплются предложения непристойного характера. Герою предстоит справиться со всеми сложившимися неурядицами, иначе в такой суматохе, он может пропустить настоящую любовь.

  • Мировая премьера: 9 июня 2014


Качество видео: HDRip

Продолжительность: 01:36:52
Формат: AVI
Видео: XviD, 720x384 (1.85:1), 23.976 fps, 1949 kbps
Аудио: русский, профессиональный многоголосый закадровый (официальный звук), AC3 2.0, 48 kHz, 192 kbps

Код:

General
Название                            : pL0x0e.p0BedeH1e.2014.P.HDRip.1.46Gb.avi
Формат                                   : AVI
Формат/Info                              : Audio Video Interleave
Размер файла                                : 1.46 GiB
Длительность                                 : 1h 36mn
Общий Битрейт                         : 2 150 Kbps
Создано приложением                      : VirtualDubMod 1.5.10.2 (build 2540/release)
Writing library                          : VirtualDubMod build 2540/release

Video
ID                                       : 0
Формат                                   : MPEG-4 Visual
Формат profile                           : Advanced Simple@L5
Формат настройки, BVOP                    : 2
Формат настройки, QPel                    : No
Формат настройки, GMC                     : No warppoints
Формат настройки, Matrix                  : Default (MPEG)
Кодек ID                                 : XVID
Кодек ID/Hint                            : XviD
Длительность                                 : 1h 36mn
Битрейт                                 : 1 949 Kbps
Width                                    : 720 пикселей
Высота                                   : 384 пикселей
Соотношение кадра                     : 1.875
Частота кадров                               : 23.976 fps
Цветопередача                              : YUV
Chroma subsampling                       : 4:2:0
Разрядность                                : 8 bits
Тип сканирования                                : Progressive
Режим сжатия                         : Lossy
Bits/(Pixel*Frame)                       : 0.294
Размер потока                              : 1.32 GiB (91%)
Writing library                          : XviD 1.2.1 (UTC 2008-12-04)

Audio
ID                                       : 1
Формат                                   : AC-3
Формат/Info                              : Audio Coding 3
Расширение режима                           : CM (complete main)
Кодек ID                                 : 2000
Длительность                                 : 1h 36mn
Битрейт mode                            : Constant
Битрейт                                 : 192 Kbps
Каналы(s)                               : 2 канала
Каналы positions                        : Front: L R
Частота                            : 48.0 KHz
Разрядность                                : 16 bits
Режим сжатия                         : Lossy
Размер потока                              : 133 MiB (9%)
Выравнивание                                : Split accross interleaves
Interleave, Длительность                     : 42 ms (1.00 video frame)
Interleave, preload Длительность             : 500 ms
picpicpicpicpic
Для увеличения картинки щелкните мышкой по превью

Этот торрент недоступен для скачивания без регистрации, однако доступен по публичной magnet-ссылке (источники с публичных трекеров). Перед использованием ссылки прочтите, пожалуйста Пользовательское соглашение, а также как можно дольше оставайтесь на раздаче! Для того, чтобы скачать сам торрент-файл (который видит больше источников), а также для того, чтобы поблагодарить релизера, вам необходимо зарегистрироваться. Если регистрироваться лень - вы можете также попробовать скачать релиз по нашим партнерским ссылкам ниже.

[underverse.su].t59170.torrent
Трекер: Зарегистрирован   [ 13.10.2015 23:07 ]  

Статус: проверено (by makkol at 16.10.2015 14:30)
Поблагодарили: 1 человек
Тип торрента: публичный - доступные источники с открытых трекеров: 
Размер: 1,46 GB (занимает 1/3 DVDR, для записи нужно 1 болванка DVDR/RW)
 
 
Похожие темы
Форум Тема Автор Торрент Отв. Посл. сооб.
Зарубежное кино [HDDVDRip / BDRip / WEB-DL / HDTV 1080/720р] Плохое поведение / Behaving Badly (Тим Гаррик) [2014 г., комедия, BDRip 720p] MVO + Original makkol
12 | 0

0 | 359

7

14.10.2015 13:12


Яндекс.Метрика powered by Sphinx


В Н И М А Н И Е
Сайт не распространяет и не хранит электронные версии произведений, а лишь бесплатно и без коммерческой выгоды (не требуя взамен платы,
SMS и т.д.) предоставляет доступ к создаваемому пользователями каталогу ссылок на торрент-файлы, которые содержат только списки хеш-сумм.
Убедительная просьба с жалобами обращаться напрямую к пользователю, разместившему торрент файл.

Вверх