Loading...
Error

Поиск / Сновидение лягушки / Чертов узел / Отвязные каникулы / The Quest / Frog Dreaming (Брайан Тренчард-Смит) [1986 г., приключения, мистика, семейный, VHSRip] AVO + Original

Статистика раздачи
Размер:  1,62 GB   |    Зарегистрирован:  1 год 1 месяц   |    Скачан:  3 раза

Полного источника не было: 2 часа 59 минут

Сидов:  0  |  0 KB/s  ]   Личеров:  0  |  0 KB/s  ]

* - сиды/пиры с внешних источников

   
 
Автор Сообщение

makkol Пол:Муж

12-Окт-2015 12:43

Поиск / Сновидение лягушки / Чертов узел / Отвязные каникулы / The Quest / Frog Dreaming


Год выпуска: 1986
Жанр: приключения, мистика, семейный
Страна: Австралия
Режиссер: Брайан Тренчард-Смит
В ролях: Генри Томас ("Инопланетянин"), Тони Бэрри, Рэйчел Френд, Тэмсин Уэст, Демпси Найт, Джон Эварт, Крис Грегори, Марк Найт, Деннис Миллер, Кэти Мэннинг
Сюжет фильма:
Коди - любитель приключений. Он узнает о старинной легенде, в которой говорится, что в озере живет чудовище. Мальчик во что бы то ни стало хочет докопаться до правды. Даже, если для этого придется рисковать жизнью...

  • Мировая премьера: 1 мая 1986


Качество видео: VHSRip

Продолжительность: 01:33:03
Формат: MKV
Видео: MPEG-4 AVC, 696x472@629x472, 25.000 fps, 1873 kbps
Аудио #1: русский, авторский одноголосый закадровый, AC3 2.0, 48 kHz, 192 kbps
Аудио #2: английский, оригинал, AC3 2.0, 48 kHz, 384 kbps

Код:

Общее
Уникальный идентификатор                 : 247615858560175340758204091447897584015 (0xBA4914654B31B3209EE103118B39718F)
Полное имя                               : Frog.Dreaming.1986.VHSRip.mkv
Формат                                   : Matroska
Версия формата                           : Version 4 / Version 2
Размер файла                             : 1,62 Гбайт
Продолжительность                        : 1 ч. 33 м.
Общий поток                              : 2499 Кбит/сек
Дата кодирования                         : UTC 2015-10-11 04:36:23
Программа кодирования                    : mkvmerge v7.9.0 ('Birds') 64bit
Библиотека кодирования                   : libebml v1.3.1 + libmatroska v1.4.2
DURATION                                 : 01:33:03.904000000
NUMBER_OF_FRAMES                         : 174497
NUMBER_OF_BYTES                          : 134013696
_STATISTICS_WRITING_APP                  : mkvmerge v7.9.0 ('Birds') 64bit
_STATISTICS_WRITING_DATE_UTC             : 2015-10-11 04:36:23
_STATISTICS_TAGS                         : BPS DURATION NUMBER_OF_FRAMES NUMBER_OF_BYTES

Видео
Идентификатор                            : 1
Формат                                   : AVC
Формат/Информация                        : Advanced Video Codec
Профиль формата                          : High@L3
Параметр CABAC формата                   : Да
Параметр ReFrames формата                : 6 кадров
Идентификатор кодека                     : V_MPEG4/ISO/AVC
Битрейт                                  : 1873 Кбит/сек
Ширина                                   : 696 пикселей
Высота                                   : 472 пикселя
Соотношение сторон                       : 4:3
Режим частоты кадров                     : Переменный
Цветовое пространство                    : YUV
Субдискретизация насыщенности            : 4:2:0
Битовая глубина                          : 8 бит
Тип развёртки                            : Прогрессивная
Библиотека кодирования                   : x264 core 120
Настройки программы                      : cabac=1 / ref=6 / deblock=1:-2:-2 / analyse=0x3:0x133 / me=umh / subme=9 / psy=1 / psy_rd=1.00:0.00 / mixed_ref=1 / me_range=24 / chroma_me=1 / trellis=2 / 8x8dct=1 / cqm=0 / deadzone=21,11 / fast_pskip=0 / chroma_qp_offset=-2 / threads=1 / sliced_threads=0 / nr=0 / decimate=1 / interlaced=0 / bluray_compat=0 / constrained_intra=0 / bframes=6 / b_pyramid=2 / b_adapt=2 / b_bias=0 / direct=3 / weightb=1 / open_gop=0 / weightp=2 / keyint=300 / keyint_min=30 / scenecut=40 / intra_refresh=0 / rc_lookahead=50 / rc=crf / mbtree=1 / crf=19.3 / qcomp=0.60 / qpmin=3 / qpmax=69 / qpstep=4 / ip_ratio=1.40 / aq=1:1.20
Язык                                     : English
Default                                  : Да
Forced                                   : Нет
Цветовой диапазон                        : Limited
Основные цвета                           : BT.601 NTSC
Характеристики трансфера                 : BT.709
Коэффициенты матрицы                     : BT.601

Аудио #1
Идентификатор                            : 2
Формат                                   : AC-3
Формат/Информация                        : Audio Coding 3
Расширение режима                        : CM (complete main)
Параметр Endianness формата              : Big
Идентификатор кодека                     : A_AC3
Продолжительность                        : 1 ч. 33 м.
Вид битрейта                             : Постоянный
Битрейт                                  : 192 Кбит/сек
Каналы                                   : 2 канала
Расположение каналов                     : Front: L R
Частота                                  : 48,0 КГц
Метод сжатия                             : С потерями
Размер потока                            : 128 Мбайт (8%)
Язык                                     : Russian
Default                                  : Да
Forced                                   : Нет

Аудио #2
Идентификатор                            : 3
Формат                                   : AC-3
Формат/Информация                        : Audio Coding 3
Расширение режима                        : CM (complete main)
Параметр Endianness формата              : Big
Идентификатор кодека                     : A_AC3
Продолжительность                        : 1 ч. 33 м.
Вид битрейта                             : Постоянный
Битрейт                                  : 384 Кбит/сек
Каналы                                   : 2 канала
Расположение каналов                     : Front: L R
Частота                                  : 48,0 КГц
Метод сжатия                             : С потерями
Размер потока                            : 256 Мбайт (15%)
Язык                                     : English
Default                                  : Нет
Forced                                   : Нет
Перевод и озвучивание: Антон Алексеев
Сведение звука: Diablo
Организация перевода: Minhers76
picpicpicpicpic
Для увеличения картинки щелкните мышкой по превью

Этот торрент недоступен для скачивания без регистрации, однако доступен по публичной magnet-ссылке (источники с публичных трекеров). Перед использованием ссылки прочтите, пожалуйста Пользовательское соглашение, а также как можно дольше оставайтесь на раздаче! Для того, чтобы скачать сам торрент-файл (который видит больше источников), а также для того, чтобы поблагодарить релизера, вам необходимо зарегистрироваться. Если регистрироваться лень - вы можете также попробовать скачать релиз по нашим партнерским ссылкам ниже.

[underverse.su].t59117.torrent
Трекер: Зарегистрирован   [ 12.10.2015 12:43 ]  

Статус: проверено (by makkol at 12.10.2015 23:36)
Поблагодарили: пока никто не поблагодарил...
Тип торрента: публичный - доступные источники с открытых трекеров: 
Размер: 1,62 GB (занимает 0,37 DVDR, для записи нужно 1 болванка DVDR/RW)
 
 

Яндекс.Метрика powered by Sphinx


В Н И М А Н И Е
Сайт не распространяет и не хранит электронные версии произведений, а лишь бесплатно и без коммерческой выгоды (не требуя взамен платы,
SMS и т.д.) предоставляет доступ к создаваемому пользователями каталогу ссылок на торрент-файлы, которые содержат только списки хеш-сумм.
Убедительная просьба с жалобами обращаться напрямую к пользователю, разместившему торрент файл.

Вверх