Loading...
Error

Кто там? / Knock Knock (Элай Рот) [2015 г., триллер, ужасы, WEB-DLRip] VO

Статистика раздачи
Размер:  1,37 GB   |    Зарегистрирован:  1 год 1 месяц   |    Скачан:  43 раза

Полного источника не было: 4 дня

Сидов:  0  |  0 KB/s  ]   Личеров:  0  |  0 KB/s  ]

* - сиды/пиры с внешних источников

   
 
Автор Сообщение

makkol Пол:Муж

12-Окт-2015 11:01

Кто там? / Knock Knock
«Бойся своих желаний»


Год выпуска: 2015
Жанр: триллер, ужасы
Производство: США [Black Bear Pictures, Camp Grey, Dragonfly Entertainment]
Режиссер: Элай Рот
В ролях: Киану Ривз, Лоренца Иззо, Ана де Армас, Игнасия Алламанд, Аарон Барнс, Коллин Кэмп
Сюжет фильма:
Отправив семью за город, архитектор Эван остается на выходных дома один доделывать срочный проект. К нему стучатся две милые молодые девушки лет двадцати, насквозь промокшие и заблудившиеся. Эван не мог предположить, что протянутая рука помощи обернется для него чередой изощренных издевательств, изысканных пыток и медленного садистского уничтожения семьи…

  • Мировая премьера: 23 января 2015
  • Российская премьера: 12 ноября 2015


Качество видео: WEB-DLRip

Продолжительность: 01:39:47
Формат: AVI
Видео: XviD, 720x304 (2.35:1), 23.976 fps, 1766 kbps
Аудио: русский, любительский одноголосый закадровый, AC3 2.0, 44.1 kHz, 192 kbps

Код:

Complete name                            : Knock.Knock.2015.xixidok.WEB-DLRip.ExKinoRay.avi
Format                                   : AVI
Format/Info                              : Audio Video Interleave
File size                                : 1.37 GiB
Duration                                 : 1h 39mn
Overall bit rate                         : 1 967 Kbps
Writing application                      : VirtualDubMod 1.5.10.2 (build 2540/release)
Writing library                          : VirtualDubMod build 2540/release

Video
ID                                       : 0
Format                                   : MPEG-4 Visual
Format profile                           : Advanced Simple@L5
Format settings, BVOP                    : 1
Format settings, QPel                    : No
Format settings, GMC                     : No warppoints
Format settings, Matrix                  : Custom
Codec ID                                 : XVID
Codec ID/Hint                            : XviD
Duration                                 : 1h 39mn
Bit rate                                 : 1 766 Kbps
Width                                    : 720 pixels
Height                                   : 304 pixels
Display aspect ratio                     : 2.35:1
Frame rate                               : 23.976 fps
Color space                              : YUV
Chroma subsampling                       : 4:2:0
Bit depth                                : 8 bits
Scan type                                : Progressive
Compression mode                         : Lossy
Bits/(Pixel*Frame)                       : 0.337
Stream size                              : 1.23 GiB (90%)
Writing library                          : XviD 73

Audio
ID                                       : 1
Format                                   : AC-3
Format/Info                              : Audio Coding 3
Mode extension                           : CM (complete main)
Format settings, Endianness              : Big
Codec ID                                 : 2000
Duration                                 : 1h 39mn
Bit rate mode                            : Constant
Bit rate                                 : 192 Kbps
Channel(s)                               : 2 channels
Channel positions                        : Front: L R
Sampling rate                            : 44.1 KHz
Bit depth                                : 16 bits
Compression mode                         : Lossy
Stream size                              : 137 MiB (10%)
Alignment                                : Split accross interleaves
Interleave, duration                     : 42 ms (1.00 video frame)
Interleave, preload duration             : 500 ms
Rip by Enigma
Перевод: Enigma
Озвучка: Хихикающий доктор
Релиз группы:
picpicpicpicpic
Для увеличения картинки щелкните мышкой по превью

Этот торрент недоступен для скачивания без регистрации, однако доступен по публичной magnet-ссылке (источники с публичных трекеров). Перед использованием ссылки прочтите, пожалуйста Пользовательское соглашение, а также как можно дольше оставайтесь на раздаче! Для того, чтобы скачать сам торрент-файл (который видит больше источников), а также для того, чтобы поблагодарить релизера, вам необходимо зарегистрироваться. Если регистрироваться лень - вы можете также попробовать скачать релиз по нашим партнерским ссылкам ниже.

[underverse.su].t59114.torrent
Трекер: Зарегистрирован   [ 12.10.2015 11:01 ]  

Статус: проверено (by makkol at 12.10.2015 23:32)
Поблагодарили: 2 человека
Тип торрента: публичный - доступные источники с открытых трекеров: 
Размер: 1,37 GB (занимает 0,31 DVDR, для записи нужно 1 болванка DVDR/RW)
 
 
Похожие темы
Форум Тема Автор Торрент Отв. Посл. сооб.
Зарубежное кино [HDDVDRip / BDRip / WEB-DL / HDTV 1080/720р] Кто там? / Knock Knock (Элай Рот) [2015 г., триллер, ужасы, WEB-DL 720p] VO + Original makkol
21 | 0

0 | 526

25

12.10.2015 11:13

T Зарубежное кино [HDDVDRip / BDRip / WEB-DL / HDTV 1080/720р] Кто там? / Knock Knock (Элай Рот) [2015 г., триллер, ужасы, BDRip 1080p] Dub (Line) + Original makkol
7 | 1

2 | 633

21

25.11.2015 20:41

Vyikately Пол:Муж

12-Окт-2015 17:17

Третий скрин особенно живо описывает всю коварную изощренность случайно приблудившихся дивчушек))))))))) :D

Яндекс.Метрика powered by Sphinx


В Н И М А Н И Е
Сайт не распространяет и не хранит электронные версии произведений, а лишь бесплатно и без коммерческой выгоды (не требуя взамен платы,
SMS и т.д.) предоставляет доступ к создаваемому пользователями каталогу ссылок на торрент-файлы, которые содержат только списки хеш-сумм.
Убедительная просьба с жалобами обращаться напрямую к пользователю, разместившему торрент файл.

Вверх