Loading...
Error

Макс / Max (Боаз Якин) [2015 г., приключения, семейный, HDRip] MVO

Статистика раздачи
Размер:  1,46 GB   |    Зарегистрирован:  1 год 1 месяц   |    Скачан:  32 раза

Полного источника не было: 43 минуты

Сидов:  0  |  0 KB/s  ]   Личеров:  0  |  0 KB/s  ]

* - сиды/пиры с внешних источников

   
 
Автор Сообщение

makkol Пол:Муж

11-Окт-2015 23:11

Макс / Max


Год выпуска: 2015
Жанр: приключения, семейный
Производство: США [Metro-Goldwyn-Mayer (MGM), Sunswept Entertainment, Warner Bros]
Режиссер: Боаз Якин
В ролях: Томас Хейден Чёрч, Джош Уиггинс, Люк Клеинтенк, Лорен Грэм, Робби Амелл, Джей Эрнандес Оуэн, Харн Джозеф, Джулиан Сория
Сюжет фильма:
История о собаке по кличке Макс. За годы, проведенные в Афганистане, он спас десятки солдат. Но однажды случилось так, что Макс сам попал под пулю. Сумев выжить, пес уже не мог продолжать свою службу, потому его отдали в семью одного из тех солдат, что он также когда-то спас. Каждому военному нелегко вернуться к обычной жизни, Макс тоже не стал исключением, хотя и вряд ли помнил, каково это. Теперь жизнь пса абсолютно изменилась, как и он сам. Сможет ли герой привыкнуть к быту без войны?

  • Мировая премьера: 25 июня 2015


Качество видео: HDRip

Продолжительность: 01:50:57
Формат: AVI
Видео: XviD, 720x304 (2.35:1), 23.976 fps, 1492 kbps
Аудио: русский, профессиональный многоголосый закадровый (iTunes), AC3 5.1, 48 kHz, 384 kbps

Код:

Общее
Полное имя : Maks.2015.P.HDRip.1.46GB.avi
Формат : AVI
Формат/Информация : Audio Video Interleave
Размер файла : 1,46 Гбайт
Продолжительность : 1 ч. 50 м.
Общий поток : 1885 Кбит/сек
Программа кодирования : VirtualDubMod 1.5.10.2 (build 2540/release)
Библиотека кодирования : VirtualDubMod build 2540/release

Видео
Идентификатор : 0
Формат : MPEG-4 Visual
Профиль формата : Advanced Simple@L5
Параметр BVOP формата : 2
Параметр QPel формата : Нет
Параметр GMC формата : Без точки перехода
Параметр матрицы формата : Default (MPEG)
Идентификатор кодека : XVID
Идентификатор кодека/Подсказка : XviD
Продолжительность : 1 ч. 50 м.
Битрейт : 1492 Кбит/сек
Ширина : 720 пикселей
Высота : 304 пикселя
Соотношение сторон : 2,35:1
Частота кадров : 23,976 кадра/сек
Цветовое пространство : YUV
Субдискретизация насыщенности : 4:2:0
Битовая глубина : 8 бит
Тип развёртки : Прогрессивная
Метод сжатия : С потерями
Бит/(Пиксели*Кадры) : 0.284
Размер потока : 1,16 Гбайт (79%)
Библиотека кодирования : XviD 1.2.1 (UTC 2008-12-04)

Аудио
Идентификатор : 1
Формат : AC-3
Формат/Информация : Audio Coding 3
Расширение режима : CM (complete main)
Идентификатор кодека : 2000
Продолжительность : 1 ч. 50 м.
Вид битрейта : Постоянный
Битрейт : 384 Кбит/сек
Каналы : 6 каналов
Расположение каналов : Front: L C R, Side: L R, LFE
Частота : 48,0 КГц
Битовая глубина : 16 бит
Метод сжатия : С потерями
Размер потока : 305 Мбайт (20%)
Выравнивание : Разделение по промежуткам
Продолжительность промежутка : 42 мс. (1,00 видеокадр)
Время предзагрузки промежутка : 500 мс.
picpicpicpicpic
Для увеличения картинки щелкните мышкой по превью

Этот торрент недоступен для скачивания без регистрации, однако доступен по публичной magnet-ссылке (источники с публичных трекеров). Перед использованием ссылки прочтите, пожалуйста Пользовательское соглашение, а также как можно дольше оставайтесь на раздаче! Для того, чтобы скачать сам торрент-файл (который видит больше источников), а также для того, чтобы поблагодарить релизера, вам необходимо зарегистрироваться. Если регистрироваться лень - вы можете также попробовать скачать релиз по нашим партнерским ссылкам ниже.

[underverse.su].t59109.torrent
Трекер: Зарегистрирован   [ 11.10.2015 23:11 ]  

Статус: T временная (by makkol at 12.10.2015 23:26)
Поблагодарили: пока никто не поблагодарил...
Тип торрента: публичный - доступные источники с открытых трекеров: 
Размер: 1,46 GB (занимает 0,33 DVDR, для записи нужно 1 болванка DVDR/RW)
 
 
Похожие темы
Форум Тема Автор Торрент Отв. Посл. сооб.
T Зарубежное кино [DVDRip, Low-Res HDRip, и т.д.] Макс / Max (Боаз Якин) [2015 г., приключения, семейный, WEBRip] DVO makkol
60 | 0

0 | 615

35

25.07.2015 14:05

T Зарубежное кино [HDDVDRip / BDRip / WEB-DL / HDTV 1080/720р] Макс / Max (Боаз Якин) [2015 г., приключения, семейный, WEBRip 720p] DVO + Original makkol
0 | 0

0 | 491

14

25.07.2015 14:22

T Зарубежное кино [HDDVDRip / BDRip / WEB-DL / HDTV 1080/720р] Макс / Max (Боаз Якин) [2015 г., приключения, семейный, WEBRip 1080p] DVO + Original makkol
0 | 0

0 | 689

21

25.07.2015 14:42

T Зарубежное кино [HDDVDRip / BDRip / WEB-DL / HDTV 1080/720р] Макс / Max (Боаз Якин) [2015 г., приключения, семейный, BDRip 1080p] MVO + Original makkol
46 | 2

0 | 329

8

12.10.2015 10:14


Яндекс.Метрика powered by Sphinx


В Н И М А Н И Е
Сайт не распространяет и не хранит электронные версии произведений, а лишь бесплатно и без коммерческой выгоды (не требуя взамен платы,
SMS и т.д.) предоставляет доступ к создаваемому пользователями каталогу ссылок на торрент-файлы, которые содержат только списки хеш-сумм.
Убедительная просьба с жалобами обращаться напрямую к пользователю, разместившему торрент файл.

Вверх