Loading...
Error

Отпуск по ранению (1-4 серии из 4) (Кирилл Капица) [2015 г., драма, криминал, SatRip]

Статистика раздачи
Размер:  2,35 GB   |    Зарегистрирован:  1 год 1 месяц   |    Скачан:  38 раз

Полного источника не было: 1 день 1 час

Сидов:  0  |  0 KB/s  ]   Личеров:  0  |  0 KB/s  ]

* - сиды/пиры с внешних источников

   
 
Автор Сообщение

nemos Пол:Муж

11-Окт-2015 16:00

Отпуск по ранению


Год выпуска: 11 октября 2015
Жанр: драма, криминал
Страна: Россия
Режиссер: Кирилл Капица
В ролях: Игорь Лифанов, Ирина Сотикова, Александра Никифорова, Алексей Федотов, Юлия Зоркина, Сергей Мурзин, Игорь Ключников, Сергей Воробьёв (IV), Андрей Бабенко, Михаил Сливников, Евгений Курилкин, Дмитрий Александров (III), Валерий Ибрагимов, Геша Меньшиков, Руслан Нанава, Оксана Базилевич, Леонид Майзель, Илья Савельев, Юрий Агейкин и др.
Сюжет фильма:
В результате успешной операции по освобождению заложников командир спецподразделения Артем Говоров ранен. Он прошел курс лечения в госпитале, и теперь едет в положенный ему отпуск по ранению на 10 суток, на родину. Там, в провинциальном приморском городке живет его единственный родственник - двоюродный брат Николай, директор местной школы. За время отпуска Артем знакомится с соседкой Светланой и помогает ей в быту. А в день отъезда майора обратно к месту службы Светлана рассказывает о проблеме – ее дочь Вика не вернулась домой на ночь. Казалось бы, с молодыми такое случается, но Светлана не на шутку встревожена и предчувствует беду. Говоров предлагает новой знакомой помощь, задерживается в городке, и как оказывается, не зря. Вика стала свидетелем криминальной потасовки, и теперь ей угрожает большая опасность.


Качество видео: SatRip

Продолжительность: 00:43:23 серия
Формат: AVI
Видео: XviD, 720x448, 1800 kbps
Аудио: русский, MP3 2.0, 128 kbps

Код:

F:\ФИЛЬМЫ\Отпуск по ранению (2014) SATRip\04.Отпуск по ранению.SATRip.avi
   General
      Complete name : F:\ФИЛЬМЫ\Отпуск по ранению (2014) SATRip\04.Отпуск по ранению.SATRip.avi
      Format : AVI
      Format/Info : Audio Video Interleave
      File size : 601 MiB
      Duration : 43mn 23s
      Overall bit rate : 1 938 Kbps
      Writing application : VirtualDubMod 1.5.10.3 | www.virtualdub-fr.org || (build 2550/release)
      Writing library : VirtualDubMod build 2550/release
   Video #0
      ID : 0
      Format : MPEG-4 Visual
      Format profile : Advanced Simple@L5
      Format settings, BVOP : 2
      Format settings, QPel : No
      Format settings, GMC : No warppoints
      Format settings, Matrix : Default (MPEG)
      Codec ID : XVID
      Codec ID/Hint : XviD
      Duration : 43mn 23s
      Bit rate : 1 800 Kbps
      Width : 720 pixels
      Height : 448 pixels
      Display aspect ratio : 1.607
      Frame rate : 25.000 fps
      Color space : YUV
      Chroma subsampling : 4:2:0
      Bit depth : 8 bits
      Scan type : Progressive
      Compression mode : Lossy
      Bits/(Pixel*Frame) : 0.223
      Stream size : 559 MiB (93%)
      Writing library : XviD 1.2.1 (UTC 2008-12-04)
   Audio #1
      ID : 1
      Format : MPEG Audio
      Format version : Version 1
      Format profile : Layer 3
      Mode : Joint stereo
      Codec ID : 55
      Codec ID/Hint : MP3
      Duration : 43mn 23s
      Bit rate mode : Constant
      Bit rate : 128 Kbps
      Channel(s) : 2 channels
      Sampling rate : 48.0 KHz
      Compression mode : Lossy
      Stream size : 39.7 MiB (7%)
      Alignment : Aligned on interleaves
      Interleave, duration : 40 ms (1.00 video frame)
      Interleave, preload duration : 504 ms
      Writing library : LAME3.99r
      Encoding settings : -m j -V 4 -q 2 -lowpass 17 -b 128
picpicpicpic
Для увеличения картинки щелкните мышкой по превью

Этот торрент недоступен для скачивания без регистрации, однако доступен по публичной magnet-ссылке (источники с публичных трекеров). Перед использованием ссылки прочтите, пожалуйста Пользовательское соглашение, а также как можно дольше оставайтесь на раздаче! Для того, чтобы скачать сам торрент-файл (который видит больше источников), а также для того, чтобы поблагодарить релизера, вам необходимо зарегистрироваться. Если регистрироваться лень - вы можете также попробовать скачать релиз по нашим партнерским ссылкам ниже.

[underverse.su].t59103.torrent
Трекер: Зарегистрирован   [ 11.10.2015 16:00 ]  

Статус: проверено (by nemos at 11.10.2015 16:11)
Поблагодарили: 2 человека
Тип торрента: публичный - доступные источники с открытых трекеров: 
Размер: 2,35 GB (занимает 0,54 DVDR, для записи нужно 1 болванка DVDR/RW)
 
 
Похожие темы
Форум Тема Автор Торрент Отв. Посл. сооб.
Popular feature films Отпуск по обмену / The Holiday (Нэнси Майерс) [2006 г., комедия, мелодрама, DVDRip] Andrew86
0 | 0

2 | 2996

4

07.09.2011 19:59


Яндекс.Метрика powered by Sphinx


В Н И М А Н И Е
Сайт не распространяет и не хранит электронные версии произведений, а лишь бесплатно и без коммерческой выгоды (не требуя взамен платы,
SMS и т.д.) предоставляет доступ к создаваемому пользователями каталогу ссылок на торрент-файлы, которые содержат только списки хеш-сумм.
Убедительная просьба с жалобами обращаться напрямую к пользователю, разместившему торрент файл.

Вверх