Loading...
Error

Кутис / Cooties (Джонатан Милотт, Кэри Мернион) [2014 г., ужасы, комедия, HDRip] Dub

Статистика раздачи
Размер:  1,37 GB   |    Зарегистрирован:  1 год 1 месяц   |    Скачан:  46 раз

Полного источника не было: 2 дня 17 часов

Сидов:  0  |  0 KB/s  ]   Личеров:  0  |  0 KB/s  ]

* - сиды/пиры с внешних источников

   
 
Автор Сообщение

makkol Пол:Муж

09-Окт-2015 11:18

Кутис / Cooties
«Детей с рук не кормить!»


Год выпуска: 2014
Жанр: ужасы, комедия
Производство: США [Glacier Films, SpectreVision]
Режиссер: Джонатан Милотт, Кэри Мернион
В ролях: Элайджа Вуд, Рэйн Уилсон, Элисон Пилл, Джек МакБрайер, Ли Уоннелл, Назим Пэдрад, Иэн Бреннан, Хорхе Гарсиа, Купер Рот, Майлз Эллиот
Сюжет фильма:
В одной частной закрытой школе появился страшный вирус! Маленькие хорошенькие детки в одночасье превратились в адских зомби, которые хотят сожрать своих любимых учителей и одноклассников. Война начинается! И не на жизнь, а на смерть.

  • Мировая премьера: 18 января 2014
  • Российская премьера: 18 сентября 2015


Качество видео: HDRip

Продолжительность: 01:28:02
Формат: AVI
Видео: XviD, 720x304 (2.35:1), 23.976 fps, 1820 kbps
Аудио: русский, дублированный (iTunes), AC3 5.1, 48 kHz, 384 kbps

Код:

Общее
Полное имя : KuT1C.2O15.D.HDRip.1400MB.avi
Формат : AVI
Формат/Информация : Audio Video Interleave
Размер файла : 1,37 Гбайт
Продолжительность : 1 ч. 28 м.
Общий поток : 2213 Кбит/сек
Программа кодирования : VirtualDubMod 1.5.10.2 (build 2540/release)
Библиотека кодирования : VirtualDubMod build 2540/release

Видео
Идентификатор : 0
Формат : MPEG-4 Visual
Профиль формата : Advanced Simple@L5
Параметр BVOP формата : 2
Параметр QPel формата : Нет
Параметр GMC формата : Без точки перехода
Параметр матрицы формата : Default (MPEG)
Идентификатор кодека : XVID
Идентификатор кодека/Подсказка : XviD
Продолжительность : 1 ч. 28 м.
Битрейт : 1820 Кбит/сек
Ширина : 720 пикселей
Высота : 304 пикселя
Соотношение сторон : 2,35:1
Частота кадров : 23,976 кадра/сек
Цветовое пространство : YUV
Субдискретизация насыщенности : 4:2:0
Битовая глубина : 8 бит
Тип развёртки : Прогрессивная
Метод сжатия : С потерями
Бит/(Пиксели*Кадры) : 0.347
Размер потока : 1,12 Гбайт (82%)
Библиотека кодирования : XviD 1.2.1 (UTC 2008-12-04)

Аудио
Идентификатор : 1
Формат : AC-3
Формат/Информация : Audio Coding 3
Расширение режима : CM (complete main)
Параметр Endianness формата : Big
Идентификатор кодека : 2000
Продолжительность : 1 ч. 28 м.
Вид битрейта : Постоянный
Битрейт : 384 Кбит/сек
Каналы : 6 каналов
Расположение каналов : Front: L C R, Side: L R, LFE
Частота : 48,0 КГц
Битовая глубина : 16 бит
Метод сжатия : С потерями
Размер потока : 243 Мбайт (17%)
Выравнивание : Разделение по промежуткам
Продолжительность промежутка : 42 мс. (1,00 видеокадр)
Время предзагрузки промежутка : 500 мс.
picpicpicpicpic
Для увеличения картинки щелкните мышкой по превью

Этот торрент недоступен для скачивания без регистрации, однако доступен по публичной magnet-ссылке (источники с публичных трекеров). Перед использованием ссылки прочтите, пожалуйста Пользовательское соглашение, а также как можно дольше оставайтесь на раздаче! Для того, чтобы скачать сам торрент-файл (который видит больше источников), а также для того, чтобы поблагодарить релизера, вам необходимо зарегистрироваться. Если регистрироваться лень - вы можете также попробовать скачать релиз по нашим партнерским ссылкам ниже.

[underverse.su].t59035.torrent
Трекер: Зарегистрирован   [ 09.10.2015 11:18 ]  

Статус: T временная (by makkol at 10.10.2015 12:39)
Поблагодарили: 1 человек
Тип торрента: публичный - доступные источники с открытых трекеров: 
Размер: 1,37 GB (занимает 0,31 DVDR, для записи нужно 1 болванка DVDR/RW)
 
 
Похожие темы
Форум Тема Автор Торрент Отв. Посл. сооб.
T Зарубежное кино [DVDRip, Low-Res HDRip, и т.д.] Кутис / Cooties (Джонатан Милотт, Кэри Мернион) [2014 г., ужасы, комедия, WEB-DLRip] Dub (звук с TS) makkol
107 | 2

0 | 504

16

22.09.2015 22:18

T Зарубежное кино [DVDRip, Low-Res HDRip, и т.д.] Кутис / Cooties (Джонатан Милотт, Кэри Мернион) [2014 г., ужасы, комедия, WEB-DLRip] Dub (Line) + Original makkol
72 | 0

0 | 657

37

02.10.2015 14:43

T Зарубежное кино [HDDVDRip / BDRip / WEB-DL / HDTV 1080/720р] Кутис / Cooties (Джонатан Милотт, Кэри Мернион) [2014 г., ужасы, комедия, WEB-DL 720p] Dub (звук с TS) + Original makkol
105 | 2

0 | 565

22

22.09.2015 22:27

T Зарубежное кино [HDDVDRip / BDRip / WEB-DL / HDTV 1080/720р] Кутис / Cooties (Джонатан Милотт, Кэри Мернион) [2014 г., ужасы, комедия, WEB-DL 720p] Dub (Line) + Original makkol
44 | 1

0 | 1384

35

02.10.2015 14:51

T Зарубежное кино [HDDVDRip / BDRip / WEB-DL / HDTV 1080/720р] Кутис / Cooties (Джонатан Милотт, Кэри Мернион) [2014 г., ужасы, комедия, BDRip 1080p] Dub (Rus) + Ger + Eng makkol
0 | 0

0 | 1006

25

09.10.2015 11:28


Яндекс.Метрика powered by Sphinx


В Н И М А Н И Е
Сайт не распространяет и не хранит электронные версии произведений, а лишь бесплатно и без коммерческой выгоды (не требуя взамен платы,
SMS и т.д.) предоставляет доступ к создаваемому пользователями каталогу ссылок на торрент-файлы, которые содержат только списки хеш-сумм.
Убедительная просьба с жалобами обращаться напрямую к пользователю, разместившему торрент файл.

Вверх