Loading...
Error

Воздух / Air (Кристиан Кантамесса) [2015 г., фантастика, триллер, BDRip] MVO

Статистика раздачи
Размер:  1,44 GB   |    Зарегистрирован:  1 год 2 месяца   |    Скачан:  67 раз
Сидов:  1  |  0 KB/s  ]   Личеров:  0  |  0 KB/s  ]

* - сиды/пиры с внешних источников

   
 
Автор Сообщение

makkol Пол:Муж

08-Окт-2015 10:09

Воздух / Air


Год выпуска: 2015
Жанр: фантастика, триллер
Производство: США [Automatik Entertainment, Circle of Confusion, Skybound Entertainment]
Режиссер: Кристиан Кантамесса
В ролях: Норман Ридус, Джимон Хонсу, Сандрин Холт, Майкл Хоган, Питер Бенсон, Дэвид Найкл, Паула Линдберг, Стив Бёрджесс
Сюжет фильма:
В центре сюжета два человека, герои Ридуса и Хонсу. Атмосфера стала совершенно непригодной для жизни, настал апокалипсис. Но у человечества еще есть шанс на спасение. Группа людей, ученых, выжила, благодаря криогенной заморозке. Только они способны спасти жизнь на Земле, и главным героям предстоит охранять их криогенный сон. Но, как оказалось, это задача не из самых простых. Впереди ребят ожидают неимоверные испытания.

  • Мировая премьера: 14 августа 2015


Релиз: Лицензия

Качество видео: BDRip

Продолжительность: 01:34:28
Формат: AVI
Видео: XviD, 720x304 (2.35:1), 23.976 fps, 1782 kbps
Аудио: русский, профессиональный многоголосый закадровый (R5), AC3 5.1, 48 kHz, 384 kbps

Код:

Общее
Полное имя : Air.2015.BDRip.avi
Формат : AVI
Формат/Информация : Audio Video Interleave
Размер файла : 1,44 Гбайт
Продолжительность : 1 ч. 34 м.
Общий поток : 2175 Кбит/сек
Программа кодирования : VirtualDubModRus 1.5.10.2 (build 2542/release)
Библиотека кодирования : VirtualDubMod build 2542/release

Видео
Идентификатор : 0
Формат : MPEG-4 Visual
Профиль формата : Advanced Simple@L5
Параметр BVOP формата : 1
Параметр QPel формата : Нет
Параметр GMC формата : Без точки перехода
Параметр матрицы формата : Выборочная
Идентификатор кодека : XVID
Идентификатор кодека/Подсказка : XviD
Продолжительность : 1 ч. 34 м.
Битрейт : 1782 Кбит/сек
Ширина : 720 пикселей
Высота : 304 пикселя
Соотношение сторон : 2,35:1
Частота кадров : 23,976 кадра/сек
Цветовое пространство : YUV
Субдискретизация насыщенности : 4:2:0
Битовая глубина : 8 бит
Тип развёртки : Прогрессивная
Метод сжатия : С потерями
Бит/(Пиксели*Кадры) : 0.340
Размер потока : 1,18 Гбайт (82%)
Библиотека кодирования : XviD 73

Аудио
Идентификатор : 1
Формат : AC-3
Формат/Информация : Audio Coding 3
Расширение режима : CM (complete main)
Параметр Endianness формата : Big
Идентификатор кодека : 2000
Продолжительность : 1 ч. 34 м.
Вид битрейта : Постоянный
Битрейт : 384 Кбит/сек
Каналы : 6 каналов
Расположение каналов : Front: L C R, Side: L R, LFE
Частота : 48,0 КГц
Битовая глубина : 16 бит
Метод сжатия : С потерями
Размер потока : 259 Мбайт (18%)
Выравнивание : Разделение по промежуткам
Продолжительность промежутка : 42 мс. (1,00 видеокадр)
Время предзагрузки промежутка : 500 мс.
picpicpicpicpic
Для увеличения картинки щелкните мышкой по превью

Этот торрент недоступен для скачивания без регистрации, однако доступен по публичной magnet-ссылке (источники с публичных трекеров). Перед использованием ссылки прочтите, пожалуйста Пользовательское соглашение, а также как можно дольше оставайтесь на раздаче! Для того, чтобы скачать сам торрент-файл (который видит больше источников), а также для того, чтобы поблагодарить релизера, вам необходимо зарегистрироваться. Если регистрироваться лень - вы можете также попробовать скачать релиз по нашим партнерским ссылкам ниже.

[underverse.su].t58982.torrent
Трекер: Зарегистрирован   [ 08.10.2015 10:09 ]  

Статус: проверено (by makkol at 10.10.2015 11:21)
Поблагодарили: пока никто не поблагодарил...
Тип торрента: публичный - доступные источники с открытых трекеров: 
Размер: 1,44 GB (занимает 0,33 DVDR, для записи нужно 1 болванка DVDR/RW)
 
 
Похожие темы
Форум Тема Автор Торрент Отв. Посл. сооб.
Зарубежное кино [DVDRip, Low-Res HDRip, и т.д.] Воздух / Air (Кристиан Кантамесса) [2015 г., фантастика, триллер, WEB-DLRip] VO Су-34
106 | 1

2 | 877

72

22.08.2015 22:17

Зарубежное кино [HDDVDRip / BDRip / WEB-DL / HDTV 1080/720р] Воздух / Air (Кристиан Кантамесса) [2015 г., фантастика, триллер, WEB-DL 720p] VO + Original makkol
17 | 0

0 | 1129

70

23.08.2015 11:39

Зарубежное кино [HDDVDRip / BDRip / WEB-DL / HDTV 1080/720р] Воздух / Air (Кристиан Кантамесса) [2015 г., Фантастика, BDRip 1080p] VO + Original + Subs (Eng) ultarasbarcelona
4 | 0

0 | 678

17

19.09.2015 15:55

Зарубежное кино [HDDVDRip / BDRip / WEB-DL / HDTV 1080/720р] Воздух / Air (Кристиан Кантамесса) [2015 г., фантастика, триллер, BDRip 1080p] MVO (Rus) + MVO (Ukr) + Original + Subs makkol
79 | 4

0 | 517

21

08.10.2015 10:20

Зарубежное кино [HDDVDRip / BDRip / WEB-DL / HDTV 1080/720р] Воздух / Air (Кристиан Кантамесса) [2015 г., фантастика, триллер, BDRip 720p] MVO (Rus) + MVO (Ukr) + Original + Subs makkol
80 | 4

0 | 793

21

08.10.2015 12:15


Яндекс.Метрика powered by Sphinx


В Н И М А Н И Е
Сайт не распространяет и не хранит электронные версии произведений, а лишь бесплатно и без коммерческой выгоды (не требуя взамен платы,
SMS и т.д.) предоставляет доступ к создаваемому пользователями каталогу ссылок на торрент-файлы, которые содержат только списки хеш-сумм.
Убедительная просьба с жалобами обращаться напрямую к пользователю, разместившему торрент файл.

Вверх