Loading...
Error

Ангел на море / Un ange a la mer / Angel at Sea (Фредерик Дюмон) [2009 г., драма, DVDRip] VO

Статистика раздачи
Размер:  733 MB   |    Зарегистрирован:  1 год 2 месяца   |    Скачан:  6 раз

Полного источника не было: 7 месяцев

Сидов:  0  |  0 KB/s  ]   Личеров:  0  |  0 KB/s  ]

* - сиды/пиры с внешних источников

   
 
Автор Сообщение

makkol Пол:Муж

06-Окт-2015 23:45

Ангел на море / Un ange à la mer / Angel at Sea


Год выпуска: 2009
Жанр: драма
Страна: Бельгия , Канада
Режиссер: Фредерик Дюмон
В ролях: Энн Консиньи, Оливье Гурме, Мартин Ниссен, Пьер-Люк Брийян
Сюжет фильма:
Луи — счастливый 12-ти летний мальчик, который живет со своим старшим братом и родителями в городке на юге Марокко. Он любит свою семью, море, воду, смех, обожает играть в футбол… Однажды его депрессивный отец открывает ему тайну, которая переворачивает всю жизнь мальчика — Луи узнает, что отец решил покончить жизнь самоубийством. Но даже опечаленный и расстроенный, он решает заботиться о своем отце и не дать ему умереть. И маленький Луи начинает на глазах терять свою детскую наивность, чтобы стать ангелом-хранителем для собственного отца.

  • Мировая премьера: 7 июля 2009


Перевод: kornickolay
Озвучивание: Василий Кошкин

Качество видео: DVDRip

Продолжительность: 01:25:51
Формат: AVI
Видео: XviD, 640x352 (16:9), 25.000 fps, 993 kbps
Аудио: русский, любительский одноголосый закадровый, MP3 2.0, 44.1 kHz, 192 kbps

Код:

Общее
Полное имя                               : Angel.At.Sea.2009.DVDRip.avi
Формат                                   : AVI
Формат/Информация                        : Audio Video Interleave
Размер файла                             : 733 Мбайт
Продолжительность                        : 1 ч. 25 м.
Общий поток                              : 1194 Кбит/сек

Видео
Идентификатор                            : 0
Формат                                   : MPEG-4 Visual
Профиль формата                          : Advanced Simple@L5
Параметр BVOP формата                    : Нет
Параметр QPel формата                    : Нет
Параметр GMC формата                     : Без точки перехода
Параметр матрицы формата                 : Default (MPEG)
Идентификатор кодека                     : XVID
Идентификатор кодека/Подсказка           : XviD
Продолжительность                        : 1 ч. 25 м.
Битрейт                                  : 993 Кбит/сек
Ширина                                   : 640 пикселей
Высота                                   : 352 пикселя
Соотношение сторон                       : 16:9
Частота кадров                           : 25,000 кадров/сек
Цветовое пространство                    : YUV
Субдискретизация насыщенности            : 4:2:0
Битовая глубина                          : 8 бит
Тип развёртки                            : Прогрессивная
Метод сжатия                             : С потерями
Бит/(Пиксели*Кадры)                      : 0.176
Размер потока                            : 610 Мбайт (83%)
Библиотека кодирования                   : XviD 62

Аудио
Идентификатор                            : 1
Формат                                   : MPEG Audio
Версия формата                           : Version 1
Профиль формата                          : Layer 3
Идентификатор кодека                     : 55
Идентификатор кодека/Подсказка           : MP3
Продолжительность                        : 1 ч. 25 м.
Вид битрейта                             : Постоянный
Битрейт                                  : 192 Кбит/сек
Каналы                                   : 2 канала
Частота                                  : 44,1 КГц
Метод сжатия                             : С потерями
Размер потока                            : 118 Мбайт (16%)
Выравнивание                             : Разделение по промежуткам
Продолжительность промежутка             : 42  мс. (1,05 видеокадр)
Библиотека кодирования                   : LAMELAME_MAJOR_VERSI
picpicpicpicpic
Для увеличения картинки щелкните мышкой по превью

Этот торрент недоступен для скачивания без регистрации, однако доступен по публичной magnet-ссылке (источники с публичных трекеров). Перед использованием ссылки прочтите, пожалуйста Пользовательское соглашение, а также как можно дольше оставайтесь на раздаче! Для того, чтобы скачать сам торрент-файл (который видит больше источников), а также для того, чтобы поблагодарить релизера, вам необходимо зарегистрироваться. Если регистрироваться лень - вы можете также попробовать скачать релиз по нашим партнерским ссылкам ниже.

[underverse.su].t58957.torrent
Трекер: Зарегистрирован   [ 06.10.2015 23:45 ]  

Статус: проверено (by makkol at 10.10.2015 11:17)
Поблагодарили: 1 человек
Тип торрента: публичный - доступные источники с открытых трекеров: 
Размер: 733 MB (занимает 0,16 DVDR, для записи нужно 1 болванка DVDR/RW)
 
 

Яндекс.Метрика powered by Sphinx


В Н И М А Н И Е
Сайт не распространяет и не хранит электронные версии произведений, а лишь бесплатно и без коммерческой выгоды (не требуя взамен платы,
SMS и т.д.) предоставляет доступ к создаваемому пользователями каталогу ссылок на торрент-файлы, которые содержат только списки хеш-сумм.
Убедительная просьба с жалобами обращаться напрямую к пользователю, разместившему торрент файл.

Вверх