Loading...
Error

Ангел для Мэй / Ангел из будущего / An Angel For May (Харли Коклисс) [2002 г., фэнтези, драма, семейный, DVDRip] MVO

Статистика раздачи
Размер:  1,36 GB   |    Зарегистрирован:  5 месяцев   |    Скачан:  4 раза

Полного источника не было: 4 месяца 29 дней

Сидов:  0  |  0 KB/s  ]   Личеров:  0  |  0 KB/s  ]

* - сиды/пиры с внешних источников

   
 
Автор Сообщение

makkol Пол:Муж

05-Окт-2015 12:31

Ангел для Мэй / Ангел из будущего / An Angel For May


Год выпуска: 2002
Жанр: фэнтези, драма, семейный
Производство: Великобритания [Barzo Productions, Children's Film and Television Foundation (CFTVF), Gentian Productions, Spice Factory Ltd., Yorkshire Media Production Agency (YMPA)]
Режиссер: Харли Коклисс
В ролях: Джули Кокс, Шарлотта Уэйкфилд, Мэттью Бирд, Мэттью МакНалти, Анна Мэсси, Анджелин Болл, Хьюго Спир, Ричард Флишман, Дора Брайан, Том Уилкинсон
Сюжет фильма:
История современного мальчика Тома и его собаки, живущих в Йоркшире, в Англии, которые вдруг переместились в начало 40-х. В прошлом Том оказался на ферме Сэма Виллера. Хозяин фермы, живущий со взрослой дочерью, опекает помешанную бродяжку по имени Мэй, которую извлекли из под обломков разрушенного бомбой дома. Под развалинами погибла вся ее семья, и с тех пор Мэй спала на улице вместе с собакой, отказываясь заходить в дом даже для еды. Однако после общения с Томом ее состояние стало улучшаться. Тем временем Том всеми силами пытается вернуться в свое время. Но вернувшись, он понимает, что в прошлом осталось что-то очень важное для него...

  • Мировая премьера: 10 августа 2002


Качество видео: DVDRip

Продолжительность: 01:37:52
Формат: AVI
Видео: XviD, 672x368 (1.85:1), 25.000 fps, 1539 kbps
Аудио: русский, профессиональный многоголосый закадровый, AC3 5.1, 48 kHz, 448 kbps

Код:

Формат                                   : AVI
Формат/Информация                        : Audio Video Interleave
Размер файла                             : 1,36 Гбайт
Продолжительность                        : 1 ч. 37 м.
Общий поток                              : 1997 Кбит/сек
Программа кодирования                    : FairUse Wizard - http://fairusewizard.com
Библиотека кодирования                   : The best and REALLY easy backup tool

Видео
Идентификатор                            : 0
Формат                                   : MPEG-4 Visual
Профиль формата                          : Advanced Simple@L5
Параметр BVOP формата                    : 1
Параметр QPel формата                    : Нет
Параметр GMC формата                     : Без точки перехода
Параметр матрицы формата                 : Default (H.263)
Режим смешивания                         : Сжатый битовый поток
Идентификатор кодека                     : XVID
Идентификатор кодека/Подсказка           : XviD
Продолжительность                        : 1 ч. 37 м.
Битрейт                                  : 1539 Кбит/сек
Ширина                                   : 672 пикселя
Высота                                   : 368 пикселей
Соотношение сторон                       : 1,85:1
Частота кадров                           : 25,000 кадров/сек
Цветовое пространство                    : YUV
Субдискретизация насыщенности            : 4:2:0
Битовая глубина                          : 8 бит
Тип развёртки                            : Прогрессивная
Метод сжатия                             : С потерями
Бит/(Пиксели*Кадры)                      : 0.249
Размер потока                            : 1,05 Гбайт (77%)
Библиотека кодирования                   : XviD 1.1.0 (UTC 2005-11-22)

Аудио
Идентификатор                            : 1
Формат                                   : AC-3
Формат/Информация                        : Audio Coding 3
Расширение режима                        : CM (complete main)
Параметр Endianness формата              : Big
Идентификатор кодека                     : 2000
Продолжительность                        : 1 ч. 37 м.
Вид битрейта                             : Постоянный
Битрейт                                  : 448 Кбит/сек
Каналы                                   : 6 каналов
Расположение каналов                     : Front: L C R, Side: L R, LFE
Частота                                  : 48,0 КГц
Метод сжатия                             : С потерями
Размер потока                            : 314 Мбайт (22%)
Выравнивание                             : Разделение по промежуткам
Продолжительность промежутка             : 40  мс. (1,00 видеокадр)
Время предзагрузки промежутка            : 500  мс.
picpicpicpicpic
Для увеличения картинки щелкните мышкой по превью

Этот торрент недоступен для скачивания без регистрации, однако доступен по публичной magnet-ссылке (источники с публичных трекеров). Перед использованием ссылки прочтите, пожалуйста Пользовательское соглашение, а также как можно дольше оставайтесь на раздаче! Для того, чтобы скачать сам торрент-файл (который видит больше источников), а также для того, чтобы поблагодарить релизера, вам необходимо зарегистрироваться. Если регистрироваться лень - вы можете также попробовать скачать релиз по нашим партнерским ссылкам ниже.

[underverse.su].t58906.torrent
Трекер: Зарегистрирован   [ 03.06.2016 14:11 ]  

Статус: проверено (by makkol at 03.06.2016 14:11)
Поблагодарили: пока никто не поблагодарил...
Тип торрента: публичный - доступные источники с открытых трекеров: 
Размер: 1,36 GB (занимает 0,31 DVDR, для записи нужно 1 болванка DVDR/RW)
 
 

Яндекс.Метрика powered by Sphinx


В Н И М А Н И Е
Сайт не распространяет и не хранит электронные версии произведений, а лишь бесплатно и без коммерческой выгоды (не требуя взамен платы,
SMS и т.д.) предоставляет доступ к создаваемому пользователями каталогу ссылок на торрент-файлы, которые содержат только списки хеш-сумм.
Убедительная просьба с жалобами обращаться напрямую к пользователю, разместившему торрент файл.

Вверх