Loading...
Error

Я плюю на ваши могилы 3 / I Spit on Your Grave 3 (Р.Д. Браунштейн) [2015 г., триллер, ужасы, HDRip] DVO

Статистика раздачи
Размер:  1,44 GB   |    Зарегистрирован:  1 год 2 месяца   |    Скачан:  85 раз

Полного источника не было: 6 дней

Сидов:  0  |  0 KB/s  ]   Личеров:  1  |  0 KB/s  ]

* - сиды/пиры с внешних источников

   
 
Автор Сообщение

makkol Пол:Муж

03-Окт-2015 22:49

Я плюю на ваши могилы 3 / I Spit on Your Grave 3


Год выпуска: 2015
Жанр: триллер, ужасы
Производство: США [Cinetel Films]
Режиссер: Р.Д. Браунштейн
В ролях: Сара Батлер, Гэбриел Хоган, Даг МакКиэн, Карен Страссман, Дженнифер Лэндон, Кори Крэйг, Лони Перрин, Джошуа Ковальчик, Бобби Рид, Хит МакГоф
Сюжет фильма:
Фильм продолжает историю Дженнифер, которая работает в службе кризисной горячей линии. Серийный убийца использует службу для выбора новых жертв. Из-за прошлого Дженнифер она становится объектом внимания детективов, расследующих эти преступления. Но на самом ли деле она — тот убийца, которого они ищут?

  • Мировая премьера: 9 октября 2015
  • Российская премьера: 1 октября 2015


Качество видео: HDRip

Продолжительность: 01:31:31
Формат: AVI
Видео: XviD, 720x304 (2.35:1), 23.976 fps, 1859 kbps
Аудио: русский, любительский двухголосый закадровый (Line Masters), AC3 2.0, 48 kHz, 384 kbps

Код:

Общее
Полное имя                               : Ya.Plu1y.Na.8ash1.Lainy.2015.L2.HDRip.avi
Формат                                   : AVI
Формат/Информация                        : Audio Video Interleave
Размер файла                             : 1,44 Гбайт
Продолжительность                        : 1 ч. 31 м.
Общий поток                              : 2253 Кбит/сек
Режиссёр                                 : Antoshka Soset Nemnogka
Программа кодирования                    : VirtualDubMod 1.5.10.3 || (build 2550/release)

Видео
Идентификатор                            : 0
Формат                                   : MPEG-4 Visual
Профиль формата                          : Advanced Simple@L5
Параметр BVOP формата                    : 2
Параметр QPel формата                    : Нет
Параметр GMC формата                     : Без точки перехода
Параметр матрицы формата                 : Default (MPEG)
Идентификатор кодека                     : XVID
Идентификатор кодека/Подсказка           : XviD
Продолжительность                        : 1 ч. 31 м.
Битрейт                                  : 1860 Кбит/сек
Ширина                                   : 720 пикселей
Высота                                   : 304 пикселя
Соотношение сторон                       : 2,35:1
Частота кадров                           : 23,976 кадра/сек
Цветовое пространство                    : YUV
Субдискретизация насыщенности            : 4:2:0
Битовая глубина                          : 8 бит
Тип развёртки                            : Прогрессивная
Метод сжатия                             : С потерями
Бит/(Пиксели*Кадры)                      : 0.354
Размер потока                            : 1,19 Гбайт (83%)
Библиотека кодирования                   : XviD 1.2.1 (UTC 2008-12-04)

Аудио
Идентификатор                            : 1
Формат                                   : AC-3
Формат/Информация                        : Audio Coding 3
Расширение режима                        : CM (complete main)
Параметр Endianness формата              : Big
Идентификатор кодека                     : 2000
Продолжительность                        : 1 ч. 31 м.
Вид битрейта                             : Постоянный
Битрейт                                  : 384 Кбит/сек
Каналы                                   : 2 канала
Расположение каналов                     : Front: L R
Частота                                  : 48,0 КГц
Метод сжатия                             : С потерями
Размер потока                            : 251 Мбайт (17%)
Выравнивание                             : Разделение по промежуткам
Продолжительность промежутка             : 42  мс. (1,00 видеокадр)
Время предзагрузки промежутка            : 500  мс.
Релиз группы:

picpicpicpicpic
Для увеличения картинки щелкните мышкой по превью

Этот торрент недоступен для скачивания без регистрации, однако доступен по публичной magnet-ссылке (источники с публичных трекеров). Перед использованием ссылки прочтите, пожалуйста Пользовательское соглашение, а также как можно дольше оставайтесь на раздаче! Для того, чтобы скачать сам торрент-файл (который видит больше источников), а также для того, чтобы поблагодарить релизера, вам необходимо зарегистрироваться. Если регистрироваться лень - вы можете также попробовать скачать релиз по нашим партнерским ссылкам ниже.

[underverse.su].t58882.torrent
Трекер: Зарегистрирован   [ 03.10.2015 22:49 ]  

Статус: проверено (by makkol at 06.10.2015 10:59)
Поблагодарили: 1 человек
Тип торрента: публичный - доступные источники с открытых трекеров: 
Размер: 1,44 GB (занимает 0,33 DVDR, для записи нужно 1 болванка DVDR/RW)
 
 
Похожие темы
Форум Тема Автор Торрент Отв. Посл. сооб.
Зарубежное кино [DVDRip, Low-Res HDRip, и т.д.] Я плюю на ваши могилы / I Spit on Your Grave [Unrated] (Стивен Р Монро) [2010 г., ужасы, триллер, криминал, HDRip-AVC] Dub + Original 90ytr90
13 | 3

0 | 8567

13

25.12.2012 08:27

Зарубежное кино [DVDRip, Low-Res HDRip, и т.д.] Я плюю на ваши могилы / I Spit on Your Grave [Unrated] (Стивен Р Монро) [2010 г., ужасы, триллер, криминал, BDRip] Dub + Original 90ytr90
9 | 1

0 | 8857

12

25.12.2012 08:36

Зарубежное кино [DVDRip, Low-Res HDRip, и т.д.] Я плюю на ваши могилы / I Spit on Your Grave [Unrated] (Стивен Р Монро) [2010 г., ужасы, триллер, криминал, HDRip] Dub 90ytr90
8 | 0

0 | 8587

29

25.12.2012 08:43

Зарубежное кино [DVDRip, Low-Res HDRip, и т.д.] Я плюю на ваши могилы 2 / I Spit On Your Grave 2 (Стивен Р. Монро) [2013 г., ужасы, триллер, криминал, BDRip-AVC] VO + Original Чертёнок
1 | 0

1 | 10697

13

11.09.2013 09:43

T Зарубежное кино [DVDRip, Low-Res HDRip, и т.д.] Я плюю на ваши могилы 2 / I Spit On Your Grave 2 (Стивен Р. Монро) [2013 г., ужасы, триллер, криминал, HDRip] Dub (звук с TS) + Original Су-34
1 | 0

1 | 40623

21

07.09.2013 20:08

Зарубежное кино [DVDRip, Low-Res HDRip, и т.д.] Я плюю на ваши могилы 2 / I Spit on Your Grave 2 (Стивен Р. Монро / Steven R. Monroe) [2013 г., ужасы, триллер, криминал, HDRip] VO (den904) + Original 90ytr90
3 | 0

0 | 10480

26

09.09.2013 04:23

Зарубежное кино [DVDRip, Low-Res HDRip, и т.д.] Я плюю на ваши могилы 2 / I Spit On Your Grave 2 (Стивен Р. Монро / Steven R. Monroe) [2013 г., ужасы, триллер, криминал, BDRip-AVC] MVO + Original 90ytr90
10 | 0

1 | 10963

86

14.09.2013 05:43

T Зарубежное кино [DVDRip, Low-Res HDRip, и т.д.] Я плюю на ваши могилы 2 / I Spit On Your Grave 2 (Стивен Р. Монро / Steven R. Monroe) [2013 г., ужасы, триллер, HDRip] Dub [чистый звук] Паукан
30 | 0

0 | 11792

50

15.10.2013 14:25

* Зарубежное кино [DVD / HDDVD / BD / Remux] Я плюю на ваши могилы / I Spit on Your Grave (Стивен Р. Монро / Steven R. Monroe) [2010, США, ужасы, триллер, криминал, BDRemux 1080p] [Open Matte] [Unrated Cut] VO + Dub + Original (Eng) + Subs... uzi2009

1 | 715

29.01.2014 16:22

Зарубежное кино [HDDVDRip / BDRip / WEB-DL / HDTV 1080/720р] Я плюю на ваши могилы / I Spit on Your Grave (Стивен Р. Монро) [2010 г., Ужасы, Триллер, Криминал BDRip 720p] Dub (Rus) + Original (Eng) + Subs (Rus, Eng) Полная версия / Unrated Ведьмочка
0 | 0

0 | 848

10

01.07.2014 20:27


Яндекс.Метрика powered by Sphinx


В Н И М А Н И Е
Сайт не распространяет и не хранит электронные версии произведений, а лишь бесплатно и без коммерческой выгоды (не требуя взамен платы,
SMS и т.д.) предоставляет доступ к создаваемому пользователями каталогу ссылок на торрент-файлы, которые содержат только списки хеш-сумм.
Убедительная просьба с жалобами обращаться напрямую к пользователю, разместившему торрент файл.

Вверх