Loading...
Error

Чёрные души / Anime nere / Black Souls (Франческо Мунци) [2014 г., драма, криминал, BDRip] VO + Original

Статистика раздачи
Размер:  2,05 GB   |    Зарегистрирован:  1 год 2 месяца   |    Скачан:  26 раз

Полного источника не было: 1 месяц 24 дня

Сидов:  0  |  0 KB/s  ]   Личеров:  0  |  0 KB/s  ]

* - сиды/пиры с внешних источников

   
 
Автор Сообщение

makkol Пол:Муж

02-Окт-2015 23:24

Чёрные души / Anime nere / Black Souls


Год выпуска: 2014
Жанр: драма, криминал
Производство: Италия , Франция [Cinemaundici, Babe Film, Rai Cinema]
Режиссер: Франческо Мунци
В ролях: Марко Леонарди, Пеппино Маззотта, Фабрицио Ферракане, Барбора Бобулова, Анна Ферруццо, Джузеппе Фумо, Паскуале Ромео, Аврора Кваттрокки, Карлос Бардем
Сюжет фильма:
Итальянская драма о жестокости калабрийской мафии. Фильм рассказывает о трех братьях, которые живут в довольно дикой местности, до сих пор выращивают коз, но при этом вовлечены в торговлю наркотиками. Психологический интерес режиссера — особенности социальных и психологических черт жителей итальянской провинции, их средневековые понятия о чести, долге, семье, жестокости, которые до сих пор оказывают огромное влияние на их жизни, но не уводят в изоляцию. Странным образом феодальные понятия остаются живучими в век международной торговли наркотиками. Ну и, разумеется, ломают жизни. Мотив кровной мести проходит сквозь целые поколения, ради нее можно пойти на все, наплевав на любую власть.

  • Мировая премьера: 29 августа 2014


Качество видео: BDRip

Продолжительность: 01:48:55
Формат: AVI
Видео: XviD, 720x304 (2.35:1), 24.000 fps, 1785 kbps
Аудио #1: русский, авторский одноголосый закадровый (В.Белов), AC3 5.1, 48 kHz, 448 kbps
Аудио #2: итальянский, оригинал, AC3 5.1, 48 kHz, 448 kbps
Субтитры: итальянские обрезанные вшитые неотключаемые, английские внешние (SRT)

Код:

Общее
Полное имя                               : ANIME.NERE.2014.BDRip.avi
Формат                                   : AVI
Формат/Информация                        : Audio Video Interleave
Профиль формата                          : OpenDML
Размер файла                             : 2,05 Гбайт
Продолжительность                        : 1 ч. 48 м.
Общий поток                              : 2697 Кбит/сек
Программа кодирования                    : XviD4PSP 6.0 / 54.29.105

Видео
Идентификатор                            : 0
Формат                                   : xvid
Идентификатор кодека                     : xvid
Продолжительность                        : 1 ч. 48 м.
Битрейт                                  : 1785 Кбит/сек
Ширина                                   : 720 пикселей
Высота                                   : 304 пикселя
Соотношение сторон                       : 2,35:1
Частота кадров                           : 24,000 кадра/сек
Бит/(Пиксели*Кадры)                      : 0.340
Размер потока                            : 1,36 Гбайт (66%)

Аудио #1
Идентификатор                            : 1
Формат                                   : AC-3
Формат/Информация                        : Audio Coding 3
Расширение режима                        : CM (complete main)
Параметр Endianness формата              : Big
Идентификатор кодека                     : 2000
Продолжительность                        : 1 ч. 48 м.
Вид битрейта                             : Постоянный
Битрейт                                  : 448 Кбит/сек
Каналы                                   : 6 каналов
Расположение каналов                     : Front: L C R, Side: L R, LFE
Частота                                  : 48,0 КГц
Битовая глубина                          : 16 бит
Метод сжатия                             : С потерями
Размер потока                            : 349 Мбайт (17%)
Выравнивание                             : Соединение по промежуткам
Продолжительность промежутка             : 32  мс. (0,77 видеокадр)

Аудио #2
Идентификатор                            : 2
Формат                                   : AC-3
Формат/Информация                        : Audio Coding 3
Расширение режима                        : CM (complete main)
Параметр Endianness формата              : Big
Идентификатор кодека                     : 2000
Продолжительность                        : 1 ч. 48 м.
Вид битрейта                             : Постоянный
Битрейт                                  : 448 Кбит/сек
Каналы                                   : 6 каналов
Расположение каналов                     : Front: L C R, Side: L R, LFE
Частота                                  : 48,0 КГц
Битовая глубина                          : 16 бит
Метод сжатия                             : С потерями
Размер потока                            : 349 Мбайт (17%)
Выравнивание                             : Соединение по промежуткам
Продолжительность промежутка             : 32  мс. (0,77 видеокадр)
picpicpicpicpic
Для увеличения картинки щелкните мышкой по превью

Этот торрент недоступен для скачивания без регистрации, однако доступен по публичной magnet-ссылке (источники с публичных трекеров). Перед использованием ссылки прочтите, пожалуйста Пользовательское соглашение, а также как можно дольше оставайтесь на раздаче! Для того, чтобы скачать сам торрент-файл (который видит больше источников), а также для того, чтобы поблагодарить релизера, вам необходимо зарегистрироваться. Если регистрироваться лень - вы можете также попробовать скачать релиз по нашим партнерским ссылкам ниже.

[underverse.su].t58818.torrent
Трекер: Зарегистрирован   [ 02.10.2015 23:24 ]  

Статус: проверено (by makkol at 03.10.2015 12:55)
Поблагодарили: пока никто не поблагодарил...
Тип торрента: публичный - доступные источники с открытых трекеров: 
Размер: 2,05 GB (занимает 0,47 DVDR, для записи нужно 1 болванка DVDR/RW)
 
 

Яндекс.Метрика powered by Sphinx


В Н И М А Н И Е
Сайт не распространяет и не хранит электронные версии произведений, а лишь бесплатно и без коммерческой выгоды (не требуя взамен платы,
SMS и т.д.) предоставляет доступ к создаваемому пользователями каталогу ссылок на торрент-файлы, которые содержат только списки хеш-сумм.
Убедительная просьба с жалобами обращаться напрямую к пользователю, разместившему торрент файл.

Вверх