Loading...
Error

Пиксели / Pixels (Крис Коламбус) [2015 г., фантастика, боевик, комедия, HDTVRip] Dub (Line)

Статистика раздачи
Размер:  1,45 GB   |    Зарегистрирован:  1 год 2 месяца   |    Скачан:  198 раз
Сидов:  2  |  0 KB/s  ]   Личеров:  0  |  0 KB/s  ]

* - сиды/пиры с внешних источников

   
 
Автор Сообщение

makkol Пол:Муж

02-Окт-2015 22:36

Пиксели / Pixels
«Пора спасать мир»


Год выпуска: 2015
Жанр: фантастика, боевик, комедия
Производство: США [1492 Pictures, Columbia Pictures, Happy Madison Productions]
Режиссер: Крис Коламбус
В ролях: Адам Сэндлер, Кевин Джеймс, Мишель Монахэн, Питер Динклэйдж, Джош Гэд, Брайан Кокс, Мэттью Линтц, Шон Бин, Джейн Краковски, Дэн Эйкройд
Сюжет фильма:
Очередное вторжение инопланетян на Землю… Вы скажете: «Что может быть банальнее?!». Да, если бы на этот раз они не предстали в виде героев вселенски популярных компьютерных игр. Сражаться с пришельцами призвана команда бывших геймеров, в числе которых: Президент Соединенных Штатов Америки; карлик-зэк, большой ценитель прекрасного пола; зануда-параноик, свято верящий в теорию вселенского заговора; профессиональный неудачник и циник, в детстве подававший большие надежды. А помогает новоиспеченным героям очаровательная ученая фея.

  • Мировая премьера: 16 июля 2015
  • Российская премьера: 23 июля 2015
  • Релиз на DVD и Blu-ray: 22 октября 2015


Качество видео: HDTVRip

Продолжительность: 01:45:37
Формат: AVI
Видео: XviD, 720x304 (2.35:1), 29.970 fps, 1576 kbps
Аудио: русский, дублированный (чистый звук), AC3 2.0, 48 kHz, 384 kbps

Код:

Общее
Полное имя                               : 5iXe1i.2015.D.HDTVRip.avi
Формат                                   : AVI
Формат/Информация                        : Audio Video Interleave
Размер файла                             : 1,45 Гбайт
Продолжительность                        : 1 ч. 45 м.
Общий поток                              : 1971 Кбит/сек
Название фильма                          : 5iXe1i.2015.D.HDTVRip.ELEKTRI4KA.uniongang.tv
Программа кодирования                    : VirtualDubMod 1.5.10.3 | | (build 2550/release)
Правообладатель                          : UNIONGANG&RUSTORRENTS

Видео
Идентификатор                            : 0
Формат                                   : MPEG-4 Visual
Профиль формата                          : Advanced Simple@L5
Параметр BVOP формата                    : 2
Параметр QPel формата                    : Нет
Параметр GMC формата                     : Без точки перехода
Параметр матрицы формата                 : Default (MPEG)
Идентификатор кодека                     : XVID
Идентификатор кодека/Подсказка           : XviD
Продолжительность                        : 1 ч. 45 м.
Битрейт                                  : 1576 Кбит/сек
Ширина                                   : 720 пикселей
Высота                                   : 304 пикселя
Соотношение сторон                       : 2,35:1
Частота кадров                           : 29,970 кадров/сек
Цветовое пространство                    : YUV
Субдискретизация насыщенности            : 4:2:0
Битовая глубина                          : 8 бит
Тип развёртки                            : Прогрессивная
Метод сжатия                             : С потерями
Бит/(Пиксели*Кадры)                      : 0.240
Размер потока                            : 1,16 Гбайт (80%)
Библиотека кодирования                   : XviD 1.2.1 (UTC 2008-12-04)

Аудио
Идентификатор                            : 1
Формат                                   : AC-3
Формат/Информация                        : Audio Coding 3
Расширение режима                        : CM (complete main)
Параметр Endianness формата              : Big
Идентификатор кодека                     : 2000
Продолжительность                        : 1 ч. 45 м.
Вид битрейта                             : Постоянный
Битрейт                                  : 384 Кбит/сек
Каналы                                   : 2 канала
Расположение каналов                     : Front: L R
Частота                                  : 48,0 КГц
Метод сжатия                             : С потерями
Размер потока                            : 290 Мбайт (19%)
Выравнивание                             : Разделение по промежуткам
Продолжительность промежутка             : 33  мс. (1,00 видеокадр)
Время предзагрузки промежутка            : 500  мс.
Релиз группы:

picpicpicpicpic
Для увеличения картинки щелкните мышкой по превью

Этот торрент недоступен для скачивания без регистрации, однако доступен по публичной magnet-ссылке (источники с публичных трекеров). Перед использованием ссылки прочтите, пожалуйста Пользовательское соглашение, а также как можно дольше оставайтесь на раздаче! Для того, чтобы скачать сам торрент-файл (который видит больше источников), а также для того, чтобы поблагодарить релизера, вам необходимо зарегистрироваться. Если регистрироваться лень - вы можете также попробовать скачать релиз по нашим партнерским ссылкам ниже.

[underverse.su].t58816.torrent
Трекер: Зарегистрирован   [ 02.10.2015 22:36 ]  

Статус: T временная (by makkol at 03.10.2015 12:53)
Поблагодарили: 7 человек
Тип торрента: публичный - доступные источники с открытых трекеров: 
Размер: 1,45 GB (занимает 1/3 DVDR, для записи нужно 1 болванка DVDR/RW)
 
 
Похожие темы
Форум Тема Автор Торрент Отв. Посл. сооб.
T Зарубежное кино [DVDRip, Low-Res HDRip, и т.д.] Пиксели / Pixels (Крис Коламбус) [2015 г., фантастика, боевик, комедия, WEBRip] Dub (звук с TS) makkol
80 | 2

0 | 670

69

23.09.2015 09:40

T Зарубежное кино [DVDRip, Low-Res HDRip, и т.д.] Пиксели / Pixels (Крис Коламбус) [2015 г., фантастика, боевик, комедия, HDRip] Dub makkol
32 | 0

1 | 736

94

11.10.2015 14:01

T Зарубежное кино [HDDVDRip / BDRip / WEB-DL / HDTV 1080/720р] Пиксели / Pixels (Крис Коламбус) [2015 г., фантастика, боевик, комедия, WEBRip 720p] Dub (звук с TS) + Original makkol
15 | 0

0 | 736

50

23.09.2015 09:51

T Зарубежное кино [HDDVDRip / BDRip / WEB-DL / HDTV 1080/720р] Пиксели / Pixels (Крис Коламбус) [2015 г., фантастика, боевик, комедия, HDTVRip 1080p] Dub (Line) + Original makkol
52 | 0

0 | 1381

120

02.10.2015 22:46

T Зарубежное кино [HDDVDRip / BDRip / WEB-DL / HDTV 1080/720р] Пиксели / Pixels (Крис Коламбус) [2015 г., фантастика, боевик, комедия, BDRip 720p] Dub + Original + Subs makkol
97 | 2

0 | 706

43

10.10.2015 14:11

T Зарубежное кино [HDDVDRip / BDRip / WEB-DL / HDTV 1080/720р] Пиксели / Pixels (Крис Коламбус) [2015 г., фантастика, боевик, комедия, BDRip 1080p] Dub + Original + Subs makkol
14 | 0

0 | 1208

67

10.10.2015 14:19

T Новинки кино [CAMRip, TS, DVDScr, WP, TC] Пиксели / Pixels (Крис Коламбус) [2015 г., фантастика, боевик, комедия, CAMRip] Dub makkol
93 | 0

1 | 1252

119

04.08.2015 18:54


Яндекс.Метрика powered by Sphinx


В Н И М А Н И Е
Сайт не распространяет и не хранит электронные версии произведений, а лишь бесплатно и без коммерческой выгоды (не требуя взамен платы,
SMS и т.д.) предоставляет доступ к создаваемому пользователями каталогу ссылок на торрент-файлы, которые содержат только списки хеш-сумм.
Убедительная просьба с жалобами обращаться напрямую к пользователю, разместившему торрент файл.

Вверх