Loading...
Error

Бумажные города / Paper Towns (Джейк Шрейер) [2015 г., драма, мелодрама, детектив, WEB-DLRip] Dub (Line)

Статистика раздачи
Размер:  1,35 GB   |    Зарегистрирован:  1 год 2 месяца   |    Скачан:  44 раза

Полного источника не было: 1 день 12 часов

Сидов:  0  |  0 KB/s  ]   Личеров:  0  |  0 KB/s  ]

* - сиды/пиры с внешних источников

   
 
Автор Сообщение

makkol Пол:Муж

02-Окт-2015 15:08

Бумажные города / Paper Towns
«Найди меня»


Год выпуска: 2015
Жанр: драма, мелодрама, детектив
Производство: США [Fox 2000 Pictures, Temple Hill Entertainment]
Режиссер: Джейк Шрейер
В ролях: Нат Вулф, Кара Делевинь, Остин Абрамс, Джастис Смит, Холстон Сейдж, Жасмин Сабино, Кара Буоно, Джозиа Серио, Ханна Аллигуд, Мэг Кросби
Сюжет фильма:
Выпускник школы Кью Джейкобсен с детских лет тайно влюблен в свою прекрасную и дерзкую соседку Марго Рот Шпигельманн. Поэтому, когда однажды ночью она приглашает его принять участие в «карательной операции» против ее обидчиков, он соглашается. Но, придя в школу после их ночного приключения, Кью узнает, что Марго исчезла… оставив для него лишь таинственные послания, которые он должен разгадать, чтобы найти девушку.

  • Мировая премьера: 18 июня 2015
  • Российская премьера: 23 июля 2015


Качество видео: WEB-DLRip

Продолжительность: 01:49:24
Формат: AVI
Видео: XviD, 720x304 (2.35:1), 23.976 fps, 1629 kbps
Аудио: русский, дублированный (чистый звук), AC3 2.0, 48 kHz, 128 kbps

Код:

Общее
Полное имя                               : 8uMaJn1e.G0r0Da.2015.D.WEB-DLRip.avi
Формат                                   : AVI
Формат/Информация                        : Audio Video Interleave
Размер файла                             : 1,35 Гбайт
Продолжительность                        : 1 ч. 49 м.
Общий поток                              : 1766 Кбит/сек
Программа кодирования                    : VirtualDubMod 1.5.10.3 | | (build 2550/release)

Видео
Идентификатор                            : 0
Формат                                   : MPEG-4 Visual
Профиль формата                          : Advanced Simple@L5
Параметр BVOP формата                    : 2
Параметр QPel формата                    : Нет
Параметр GMC формата                     : Без точки перехода
Параметр матрицы формата                 : Default (MPEG)
Идентификатор кодека                     : XVID
Идентификатор кодека/Подсказка           : XviD
Продолжительность                        : 1 ч. 49 м.
Битрейт                                  : 1629 Кбит/сек
Ширина                                   : 720 пикселей
Высота                                   : 304 пикселя
Соотношение сторон                       : 2,35:1
Частота кадров                           : 23,976 кадра/сек
Цветовое пространство                    : YUV
Субдискретизация насыщенности            : 4:2:0
Битовая глубина                          : 8 бит
Тип развёртки                            : Прогрессивная
Метод сжатия                             : С потерями
Бит/(Пиксели*Кадры)                      : 0.310
Размер потока                            : 1,24 Гбайт (92%)
Библиотека кодирования                   : XviD 1.2.1 (UTC 2008-12-04)

Аудио
Идентификатор                            : 1
Формат                                   : AC-3
Формат/Информация                        : Audio Coding 3
Расширение режима                        : CM (complete main)
Параметр Endianness формата              : Big
Идентификатор кодека                     : 2000
Продолжительность                        : 1 ч. 49 м.
Вид битрейта                             : Постоянный
Битрейт                                  : 128 Кбит/сек
Каналы                                   : 2 канала
Расположение каналов                     : Front: L R
Частота                                  : 48,0 КГц
Метод сжатия                             : С потерями
Размер потока                            : 99,9 Мбайт (7%)
Выравнивание                             : Разделение по промежуткам
Продолжительность промежутка             : 42  мс. (1,00 видеокадр)
Время предзагрузки промежутка            : 500  мс.
Релиз группы:

picpicpicpicpic
Для увеличения картинки щелкните мышкой по превью

Этот торрент недоступен для скачивания без регистрации, однако доступен по публичной magnet-ссылке (источники с публичных трекеров). Перед использованием ссылки прочтите, пожалуйста Пользовательское соглашение, а также как можно дольше оставайтесь на раздаче! Для того, чтобы скачать сам торрент-файл (который видит больше источников), а также для того, чтобы поблагодарить релизера, вам необходимо зарегистрироваться. Если регистрироваться лень - вы можете также попробовать скачать релиз по нашим партнерским ссылкам ниже.

[underverse.su].t58790.torrent
Трекер: Зарегистрирован   [ 02.10.2015 15:08 ]  

Статус: T временная (by makkol at 03.10.2015 12:51)
Поблагодарили: пока никто не поблагодарил...
Тип торрента: публичный - доступные источники с открытых трекеров: 
Размер: 1,35 GB (занимает 0,31 DVDR, для записи нужно 1 болванка DVDR/RW)
 
 
Похожие темы
Форум Тема Автор Торрент Отв. Посл. сооб.
T Зарубежное кино [DVDRip, Low-Res HDRip, и т.д.] Бумажные города / Paper Towns (Джейк Шрейер) [2015 г., драма, мелодрама, детектив, HDRip] Dub makkol
61 | 1

0 | 585

27

09.10.2015 10:46

T Зарубежное кино [HDDVDRip / BDRip / WEB-DL / HDTV 1080/720р] Бумажные города / Paper Towns (Джейк Шрейер) [2015 г., драма, мелодрама, детектив, WEB-DL 1080p] Dub (Line) + Original makkol
71 | 1

0 | 605

27

02.10.2015 15:17

T Зарубежное кино [HDDVDRip / BDRip / WEB-DL / HDTV 1080/720р] Бумажные города / Paper Towns (Джейк Шрейер) [2015 г., драма, мелодрама, детектив, BDRip 720p] Dub + Original makkol
29 | 1

0 | 416

7

09.10.2015 10:56

T Зарубежное кино [HDDVDRip / BDRip / WEB-DL / HDTV 1080/720р] Бумажные города / Paper Towns (Джейк Шрейер) [2015 г., драма, мелодрама, детектив, BDRip 1080p] Dub + Original makkol
17 | 2

0 | 608

13

09.10.2015 11:07


Яндекс.Метрика powered by Sphinx


В Н И М А Н И Е
Сайт не распространяет и не хранит электронные версии произведений, а лишь бесплатно и без коммерческой выгоды (не требуя взамен платы,
SMS и т.д.) предоставляет доступ к создаваемому пользователями каталогу ссылок на торрент-файлы, которые содержат только списки хеш-сумм.
Убедительная просьба с жалобами обращаться напрямую к пользователю, разместившему торрент файл.

Вверх