Loading...
Error

Ограм на счастье / Au bonheur des ogres (Николя Бери) [2013 г., драма, комедия, HDRip] MVO

Статистика раздачи
Размер:  1,37 GB   |    Зарегистрирован:  1 год 2 месяца   |    Скачан:  26 раз

Полного источника не было: 3 месяца 13 дней

Сидов:  0  |  0 KB/s  ]   Личеров:  0  |  0 KB/s  ]

* - сиды/пиры с внешних источников

   
 
Автор Сообщение

makkol Пол:Муж

30-Сен-2015 15:04

Ограм на счастье / Au bonheur des ogres


Год выпуска: 2013
Жанр: драма, комедия
Производство: Франция [Alvy Développement, Bidibul Productions, Canal+ [fr], Chapter 2]
Режиссер: Николя Бери
В ролях: Рафаэль Персонас, Беренис Бежо, Эмир Кустурица, Гийом де Тонкедек, Тьерри Нёвик, Мелани Бернье, Дин Константин Гэйгани, Мариус Йелоло, Бруно Павио, Алис Поль
Сюжет фильма:
Бенджамин Малуссен, рассеянный молодой человек с голубыми глазами, любит мечтать, и одевается не по моде. У него довольно редкая и специфическая профессия - Бен работает «козлом отпущения» в одном из самых престижных универмагов Парижа. В его обязанности входит выслушивать претензии недовольных клиентов, а также принимать от них жалобы. Но когда в универмаге происходят несколько происшествий, первым под подозрением оказывается Бен. Он решает провести свое собственное расследование, помогать ему в котором берется симпатичная журналистка Джулия.

  • Мировая премьера: 28 февраля 2013


Качество видео: HDRip

Продолжительность: 01:36:45
Формат: AVI
Видео: XviD, 720x304 (2.35:1), 24.000 fps, 1820 kbps
Аудио: русский, профессиональный многоголосый закадровый (Первый канал), AC3 2.0, 48 kHz, 192 kbps

Код:

Общее
Полное имя                               : Ogram.na.s4astje.2013.P.HDRip.avi
Формат                                   : AVI
Формат/Информация                        : Audio Video Interleave
Размер файла                             : 1,37 Гбайт
Продолжительность                        : 1 ч. 36 м.
Общий поток                              : 2022 Кбит/сек
Программа кодирования                    : VirtualDubMod 1.5.10.2 (build 2540/release)
Библиотека кодирования                   : VirtualDubMod build 2540/release

Видео
Идентификатор                            : 0
Формат                                   : MPEG-4 Visual
Профиль формата                          : Advanced Simple@L5
Параметр BVOP формата                    : 2
Параметр QPel формата                    : Нет
Параметр GMC формата                     : Без точки перехода
Параметр матрицы формата                 : Default (MPEG)
Идентификатор кодека                     : XVID
Идентификатор кодека/Подсказка           : XviD
Продолжительность                        : 1 ч. 36 м.
Битрейт                                  : 1820 Кбит/сек
Ширина                                   : 720 пикселей
Высота                                   : 304 пикселя
Соотношение сторон                       : 2,35:1
Частота кадров                           : 24,000 кадра/сек
Цветовое пространство                    : YUV
Субдискретизация насыщенности            : 4:2:0
Битовая глубина                          : 8 бит
Тип развёртки                            : Прогрессивная
Метод сжатия                             : С потерями
Бит/(Пиксели*Кадры)                      : 0.347
Размер потока                            : 1,23 Гбайт (90%)
Библиотека кодирования                   : XviD 1.2.1 (UTC 2008-12-04)

Аудио
Идентификатор                            : 1
Формат                                   : AC-3
Формат/Информация                        : Audio Coding 3
Расширение режима                        : CM (complete main)
Параметр Endianness формата              : Big
Идентификатор кодека                     : 2000
Продолжительность                        : 1 ч. 36 м.
Вид битрейта                             : Постоянный
Битрейт                                  : 192 Кбит/сек
Каналы                                   : 2 канала
Расположение каналов                     : Front: L R
Частота                                  : 48,0 КГц
Метод сжатия                             : С потерями
Размер потока                            : 133 Мбайт (9%)
Выравнивание                             : Разделение по промежуткам
Продолжительность промежутка             : 42  мс. (1,00 видеокадр)
Время предзагрузки промежутка            : 500  мс.
picpicpicpicpic
Для увеличения картинки щелкните мышкой по превью

Этот торрент недоступен для скачивания без регистрации, однако доступен по публичной magnet-ссылке (источники с публичных трекеров). Перед использованием ссылки прочтите, пожалуйста Пользовательское соглашение, а также как можно дольше оставайтесь на раздаче! Для того, чтобы скачать сам торрент-файл (который видит больше источников), а также для того, чтобы поблагодарить релизера, вам необходимо зарегистрироваться. Если регистрироваться лень - вы можете также попробовать скачать релиз по нашим партнерским ссылкам ниже.

[underverse.su].t58735.torrent
Трекер: Зарегистрирован   [ 30.09.2015 15:04 ]  

Статус: проверено (by makkol at 03.10.2015 12:32)
Поблагодарили: пока никто не поблагодарил...
Тип торрента: публичный - доступные источники с открытых трекеров: 
Размер: 1,37 GB (занимает 0,31 DVDR, для записи нужно 1 болванка DVDR/RW)
 
 
Похожие темы
Форум Тема Автор Торрент Отв. Посл. сооб.
Зарубежное кино [HDDVDRip / BDRip / WEB-DL / HDTV 1080/720р] Ограм на счастье / Au bonheur des ogres (Николя Бери) [2013 г., драма, комедия, BDRip 1080p] MVO + Original makkol
3 | 0

0 | 379

14

30.09.2015 15:14


Яндекс.Метрика powered by Sphinx


В Н И М А Н И Е
Сайт не распространяет и не хранит электронные версии произведений, а лишь бесплатно и без коммерческой выгоды (не требуя взамен платы,
SMS и т.д.) предоставляет доступ к создаваемому пользователями каталогу ссылок на торрент-файлы, которые содержат только списки хеш-сумм.
Убедительная просьба с жалобами обращаться напрямую к пользователю, разместившему торрент файл.

Вверх