Loading...
Error

Последняя смена / Last Shift (Энтони ДиБлази) [2014 г., ужасы, триллер, HDRip] VO

Статистика раздачи
Размер:  1,2 GB   |    Зарегистрирован:  1 год 2 месяца   |    Скачан:  25 раз

Полного источника не было: 1 месяц 14 дней

Сидов:  0  |  0 KB/s  ]   Личеров:  0  |  0 KB/s  ]

* - сиды/пиры с внешних источников

   
 
Автор Сообщение

makkol Пол:Муж

30-Сен-2015 14:18

Последняя смена / Last Shift


Год выпуска: 2014
Жанр: ужасы, триллер
Производство: США [Skyra Entertainment]
Режиссер: Энтони ДиБлази
В ролях: Джулиана Харкви, Джошуа Микель, Дж. ЛаРоуз, Натали Виктория, Сара Скулко, Кэтрин Килгер, Мэри Лэнкфорд Пойли, Джереми С. Брок, Аманда Дефранс, Мэтт Домэн
Сюжет фильма:
Главная героиня остросюжетного фильма «Последняя смена» - Джессика Лорен, молоденькая и неопытная работница полиции. В таком статусе ей осталось быть совсем недолго – всего лишь одну ночь. Так уж вышло, что именно эта ночь выпала на её дежурство. Потом их полицейский участок закроют, а пока Джессика должна честно выполнять свой долг. Она не может покинуть место своего дежурства ни под каким предлогом, поскольку это её прямая обязанность. Однако на ночном дежурстве она узнаёт очень много нового о полицейском участке. Оказывается, это совершенно необычное место, в котором живёт воплощение дьявольского зла. У этого адского отродья есть свои последователи, и они постараются сделать всё возможное, чтобы превратить последнее дежурство Джессика Лорен в сущий кошмар. Сможет ли молодая и неопытная девушка выдержать испытание и остаться в живых?

Сюжет перекликаетcя с фильмом Джона Карпентера «Нападение на 13-й участок», но с изюминкой сверхъестественного.

  • Мировая премьера: 25 октября 2014


Перевод: anton1
Озвучивание: Хихикающий доктор

Качество видео: HDRip

Продолжительность: 01:27:33
Формат: AVI
Видео: XviD, 720x304 (2.35:1), 23.976 fps, 1758 kbps
Аудио: русский, любительский одноголосый закадровый, MP3 2.0, 44.1 kHz, 192 kbps

Код:

Общее
Полное имя                               : Last.Shift.2014.HDRip.avi
Формат                                   : AVI
Формат/Информация                        : Audio Video Interleave
Размер файла                             : 1,20 Гбайт
Продолжительность                        : 1 ч. 27 м.
Общий поток                              : 1960 Кбит/сек
Программа кодирования                    : VirtualDubMod 1.5.10.2 (build 2540/release)
Библиотека кодирования                   : VirtualDubMod build 2540/release

Видео
Идентификатор                            : 0
Формат                                   : MPEG-4 Visual
Профиль формата                          : Advanced Simple@L5
Параметр BVOP формата                    : 2
Параметр QPel формата                    : Нет
Параметр GMC формата                     : Без точки перехода
Параметр матрицы формата                 : Default (H.263)
Режим смешивания                         : Сжатый битовый поток
Идентификатор кодека                     : XVID
Идентификатор кодека/Подсказка           : XviD
Продолжительность                        : 1 ч. 27 м.
Битрейт                                  : 1758 Кбит/сек
Ширина                                   : 720 пикселей
Высота                                   : 304 пикселя
Соотношение сторон                       : 2,35:1
Частота кадров                           : 23,976 кадра/сек
Цветовое пространство                    : YUV
Субдискретизация насыщенности            : 4:2:0
Битовая глубина                          : 8 бит
Тип развёртки                            : Прогрессивная
Метод сжатия                             : С потерями
Бит/(Пиксели*Кадры)                      : 0.335
Размер потока                            : 1,08 Гбайт (90%)
Библиотека кодирования                   : XviD 66

Аудио
Идентификатор                            : 1
Формат                                   : MPEG Audio
Версия формата                           : Version 1
Профиль формата                          : Layer 3
Идентификатор кодека                     : 55
Идентификатор кодека/Подсказка           : MP3
Продолжительность                        : 1 ч. 27 м.
Вид битрейта                             : Постоянный
Битрейт                                  : 192 Кбит/сек
Каналы                                   : 2 канала
Частота                                  : 44,1 КГц
Метод сжатия                             : С потерями
Размер потока                            : 120 Мбайт (10%)
Выравнивание                             : Разделение по промежуткам
Продолжительность промежутка             : 42  мс. (1,00 видеокадр)
Время предзагрузки промежутка            : 500  мс.
picpicpicpicpic
Для увеличения картинки щелкните мышкой по превью

Этот торрент недоступен для скачивания без регистрации, однако доступен по публичной magnet-ссылке (источники с публичных трекеров). Перед использованием ссылки прочтите, пожалуйста Пользовательское соглашение, а также как можно дольше оставайтесь на раздаче! Для того, чтобы скачать сам торрент-файл (который видит больше источников), а также для того, чтобы поблагодарить релизера, вам необходимо зарегистрироваться. Если регистрироваться лень - вы можете также попробовать скачать релиз по нашим партнерским ссылкам ниже.

[underverse.su].t58733.torrent
Трекер: Зарегистрирован   [ 30.09.2015 14:18 ]  

Статус: проверено (by makkol at 03.10.2015 11:27)
Поблагодарили: пока никто не поблагодарил...
Тип торрента: публичный - доступные источники с открытых трекеров: 
Размер: 1,2 GB (занимает 0,27 DVDR, для записи нужно 1 болванка DVDR/RW)
 
 
Похожие темы
Форум Тема Автор Торрент Отв. Посл. сооб.
T Зарубежное кино [DVDRip, Low-Res HDRip, и т.д.] Последняя любовь мистера Моргана / Mr. Morgan's Last Love (Сандра Неттельбек / Sandra Nettelbeck) [2013 г., драма, комедия, BDRip-AVC] Dub (чистый звук) + DVO (Чистохина и Чепусов) + Original (Eng)... 90ytr90
2 | 0

0 | 443

11

23.04.2014 18:16

Зарубежное кино [DVDRip, Low-Res HDRip, и т.д.] Последняя надежда человечества / Against the Dark (Ричард Крудо) [2009 г., ужасы, фантастика, боевик, триллер, DVDRip] Boromir9
0 | 1

1 | 2071

3

19.12.2010 11:58

Зарубежное кино [DVDRip, Low-Res HDRip, и т.д.] Последняя любовь на Земле / Perfect Sense (Дэвид МакКензи) [2011 г., фантастика, драма, мелодрама, HDRip] MVO RG NewCinema
11 | 4

0 | 1242

41

13.11.2012 18:15

Зарубежное кино [DVDRip, Low-Res HDRip, и т.д.] Последняя искра жизни / La chispa de la vida (Алекс де ла Иглесиа) [2011, драма, DVDRip] MVO + Original Spa Garnett
13 | 0

0 | 859

4

10.12.2012 05:23

Зарубежное кино [DVDRip, Low-Res HDRip, и т.д.] Последняя искра жизни / La chispa de la vida (Алекс де ла Иглесиа) [2011, драма, DVDRip] MVO Garnett
30 | 0

1 | 1010

4

12.12.2012 18:06

Зарубежное кино [DVDRip, Low-Res HDRip, и т.д.] Последняя любовь на Земле / Perfect Sense (Дэвид МакКензи) [2011 г., фантастика, драма, мелодрама , BDRip-AVC] MVO Чертёнок
8 | 0

0 | 1363

27

02.02.2013 21:41

Зарубежное кино [DVDRip, Low-Res HDRip, и т.д.] Последняя карета / Последний вагон / The Last Wagon / L'ultima carrozzella (Марио Маттоли) [1943 г., Комедия, DVDRip] VO + Original Чертёнок
0 | 1

0 | 1292

1

23.09.2013 09:54

Зарубежное кино [DVDRip, Low-Res HDRip, и т.д.] Последняя любовь мистера Моргана / Mr. Morgan's Last Love (Сандра Неттельбек) [2013 г., драма, комедия, HDRip] DVO (CasStudio) 90ytr90
1 | 0

1 | 2073

37

22.12.2013 02:15

Зарубежное кино [DVDRip, Low-Res HDRip, и т.д.] Последняя любовь мистера Моргана / Mr. Morgan's Last Love (Сандра Неттельбек) [2013 г., драма, комедия, HDRip] DVO (CasStudio) 90ytr90
0 | 1

0 | 562

15

22.12.2013 06:46

T Зарубежное кино [DVDRip, Low-Res HDRip, и т.д.] Последняя любовь мистера Моргана / Mr. Morgan's Last Love (Сандра Неттельбек / Sandra Nettelbeck) [2013 г., драма, комедия, HDRip] Dub (чистый звук) + Original (Eng) 90ytr90
11 | 0

1 | 559

14

03.07.2014 21:53


Яндекс.Метрика powered by Sphinx


В Н И М А Н И Е
Сайт не распространяет и не хранит электронные версии произведений, а лишь бесплатно и без коммерческой выгоды (не требуя взамен платы,
SMS и т.д.) предоставляет доступ к создаваемому пользователями каталогу ссылок на торрент-файлы, которые содержат только списки хеш-сумм.
Убедительная просьба с жалобами обращаться напрямую к пользователю, разместившему торрент файл.

Вверх