Loading...
Error

Прогулка по Миссисипи / Mississippi Grind (Анна Боден, Райан Флек) [2015 г., драма, WEB-DLRip] VO

Статистика раздачи
Размер:  1,42 GB   |    Зарегистрирован:  1 год 2 месяца   |    Скачан:  30 раз

Полного источника не было: 9 дней

Сидов:  0  |  0 KB/s  ]   Личеров:  0  |  0 KB/s  ]

* - сиды/пиры с внешних источников

   
 
Автор Сообщение

makkol Пол:Муж

30-Сен-2015 14:01

Прогулка по Миссисипи / Mississippi Grind


Год выпуска: 2015
Жанр: драма
Производство: США [Electric City Entertainment, Gowanus Projections]
Режиссер: Анна Боден, Райан Флек
В ролях: Бен Мендельсон, Райан Рейнольдс, Ивонн Ландри, Энтони Ховард, Джэйсон Уорнер Смит, Керри Кехилл, Джейн МакНейлл, Jason Shaffette, П.Дж. Маршалл, Стефани Онор
Сюжет фильма:
Джерри – талантливый игрок в покер, но его удача, похоже, отвернулась от него, да и годы берут свое. Однажды он встречает харизматичного молодого человека Кертиса, тоже заядлого картежника. Полагая, что этот обаятельный парень может стать его талисманом, герой фильма «Прогулка по Миссисипи» предлагает ему вместе отправиться в поездку по югу Америки в Новый Орлеан, на серьезный турнир по покеру. Путешествие станет для этой парочки проверкой на прочность их отношений, выявит истинные мотивы, что ими движут, и сформирует между ними невидимую связь.

  • Мировая премьера: 24 января 2015


Качество видео: WEB-DLRip

Продолжительность: 01:48:19
Формат: AVI
Видео: XviD, 720x300 (2.40:1), 23.976 fps, 1671 kbps
Аудио: русский, любительский одноголосый закадровый (RAIM), AC3 2.0, 48 kHz, 192 kbps

Код:

Общее
Полное имя : Mississippi.Grind.2015.RAIM.avi
Формат : AVI
Формат/Информация : Audio Video Interleave
Размер файла : 1,42 Гбайт
Продолжительность : 1 ч. 48 м.
Общий поток : 1872 Кбит/сек
Программа кодирования : VirtualDubMod 1.5.10.3 | (build 2550/release)
Библиотека кодирования : VirtualDubMod build 2550/release

Видео
Идентификатор : 0
Формат : MPEG-4 Visual
Профиль формата : Advanced Simple@L5
Параметр BVOP формата : 2
Параметр QPel формата : Нет
Параметр GMC формата : Без точки перехода
Параметр матрицы формата : Default (H.263)
Режим смешивания : Сжатый битовый поток
Идентификатор кодека : XVID
Идентификатор кодека/Подсказка : XviD
Продолжительность : 1 ч. 48 м.
Битрейт : 1671 Кбит/сек
Ширина : 720 пикселей
Высота : 300 пикселей
Соотношение сторон : 2,40:1
Частота кадров : 23,976 кадра/сек
Цветовое пространство : YUV
Субдискретизация насыщенности : 4:2:0
Битовая глубина : 8 бит
Тип развёртки : Прогрессивная
Метод сжатия : С потерями
Бит/(Пиксели*Кадры) : 0.323
Размер потока : 1,26 Гбайт (89%)
Библиотека кодирования : XviD 66

Аудио
Идентификатор : 1
Формат : AC-3
Формат/Информация : Audio Coding 3
Расширение режима : CM (complete main)
Идентификатор кодека : 2000
Продолжительность : 1 ч. 48 м.
Вид битрейта : Постоянный
Битрейт : 192 Кбит/сек
Каналы : 2 канала
Расположение каналов : Front: L R
Частота : 48,0 КГц
Битовая глубина : 16 бит
Метод сжатия : С потерями
Размер потока : 149 Мбайт (10%)
Выравнивание : Разделение по промежуткам
Продолжительность промежутка : 42 мс. (1,00 видеокадр)
Время предзагрузки промежутка : 500 мс.
picpicpicpicpic
Для увеличения картинки щелкните мышкой по превью

Этот торрент недоступен для скачивания без регистрации, однако доступен по публичной magnet-ссылке (источники с публичных трекеров). Перед использованием ссылки прочтите, пожалуйста Пользовательское соглашение, а также как можно дольше оставайтесь на раздаче! Для того, чтобы скачать сам торрент-файл (который видит больше источников), а также для того, чтобы поблагодарить релизера, вам необходимо зарегистрироваться. Если регистрироваться лень - вы можете также попробовать скачать релиз по нашим партнерским ссылкам ниже.

[underverse.su].t58732.torrent
Трекер: Зарегистрирован   [ 30.09.2015 14:01 ]  

Статус: проверено (by makkol at 03.10.2015 11:27)
Поблагодарили: пока никто не поблагодарил...
Тип торрента: публичный - доступные источники с открытых трекеров: 
Размер: 1,42 GB (занимает 0,32 DVDR, для записи нужно 1 болванка DVDR/RW)
 
 
Похожие темы
Форум Тема Автор Торрент Отв. Посл. сооб.
Зарубежное кино [DVDRip, Low-Res HDRip, и т.д.] Прогулка по солнечному свету / Walking on Sunshine (Макс Джива, Дания Пасквини) [2014 г., Мюзикл, Мелодрама, DVDRip-AVC] Dub (RUS, Лицензия) Ведьмочка
0 | 0

0 | 404

3

28.09.2014 09:48

T Зарубежное кино [DVDRip, Low-Res HDRip, и т.д.] Прогулка по солнечному свету / Walking on Sunshine (Макс Джива, Дания Пасквини) [2014 г., Мюзикл, Мелодрама, WEB-DLRip-AVC] Dub (RUS, iTunes Russia) Ведьмочка
2 | 1

0 | 683

6

05.09.2014 17:34

Зарубежное кино [DVDRip, Low-Res HDRip, и т.д.] Прогулка по солнечному свету / Walking on Sunshine (Макс Джива / Max Giwa, Дания Пасквини / Dania Pasquini) [2014 г., мюзикл, мелодрама, HDRip] Dub 90ytr90
1 | 0

0 | 687

11

18.10.2014 08:44

Зарубежное кино [DVDRip, Low-Res HDRip, и т.д.] Прогулка по Бангкоку / On a marche sur Bangkok (Оливье Барру) [2014 г., комедия, HDRip] MVO makkol
32 | 0

0 | 772

68

25.07.2015 23:00

Зарубежное кино [DVDRip, Low-Res HDRip, и т.д.] Прогулка по Миссисипи / Mississippi Grind (Анна Боден, Райан Флек) [2015 г., драма, HDRip] DVO makkol
0 | 0

0 | 608

20

22.11.2015 10:05

% Зарубежное кино [DVDRip, Low-Res HDRip, и т.д.] Прогулка по лесам / A Walk in the Woods (Кен Куопис / Ken Kwapis) [2015 г., драма, комедия, приключения, биография, HDRip] DVO (Parovoz Production) + Original (Eng) 90ytr90
92 | 3

0 | 390

14

11.01.2016 18:14

% Зарубежное кино [DVDRip, Low-Res HDRip, и т.д.] Прогулка по лесам / A Walk in the Woods (Кен Куопис / Ken Kwapis) [2015 г., драма, комедия, приключения, биография, HDRip] DVO (Parovoz Production) + Original (Eng) + Sub (Eng) 90ytr90
56 | 1

0 | 457

6

12.01.2016 19:26

Зарубежное кино [DVDRip, Low-Res HDRip, и т.д.] Прогулка по Миссисипи / Mississippi Grind (Анна Боден / Anna Boden, Райан Флек / Ryan Fleck) [2015 г., драма, HDRip] MVO (CCK Media Production & NesTea) 90ytr90
6 | 1

0 | 686

6

17.02.2016 18:09

Зарубежное кино [DVDRip, Low-Res HDRip, и т.д.] Прогулка по Миссисипи / Mississippi Grind (Анна Боден / Anna Boden, Райан Флек / Ryan Fleck) [2015 г., драма, HDRip] MVO (CCK Media Production & NesTea) 90ytr90
1 | 0

0 | 1055

2

18.02.2016 19:50

* Зарубежное кино [DVDRip, Low-Res HDRip, и т.д.] Прогулка по Миссисипи / Mississippi Grind (Анна Боден / Anna Boden, Райан Флек / Ryan Fleck) [2015 г., драма, BDRip-AVC] AVO (Чадов) + Original (Eng) 90ytr90
5 | 0

0 | 298

4

19.02.2016 15:26


Яндекс.Метрика powered by Sphinx


В Н И М А Н И Е
Сайт не распространяет и не хранит электронные версии произведений, а лишь бесплатно и без коммерческой выгоды (не требуя взамен платы,
SMS и т.д.) предоставляет доступ к создаваемому пользователями каталогу ссылок на торрент-файлы, которые содержат только списки хеш-сумм.
Убедительная просьба с жалобами обращаться напрямую к пользователю, разместившему торрент файл.

Вверх