Loading...
Error

Прогулка с мертвецами / Walking with the Dead (Скотт Дау) [2015 г., комедия, WEB-DLRip] MVO + Original

Статистика раздачи
Размер:  1,47 GB   |    Зарегистрирован:  1 год 4 месяца   |    Скачан:  19 раз

Полного источника не было: 2 месяца 17 дней

Сидов:  0  |  0 KB/s  ]   Личеров:  0  |  0 KB/s  ]

* - сиды/пиры с внешних источников

   
 
Автор Сообщение

makkol Пол:Муж

30-Сен-2015 11:28

Прогулка с мертвецами / Walking with the Dead
«Представь мир, где мёртвые умнее живых»


Год выпуска: 2015
Жанр: комедия
Производство: США [Ari Star Entertainment, Belligerent Seal Productions, Sheridanscope]
Режиссер: Скотт Дау
В ролях: Тим Оглтри, Джои Оглсби, Дейв Шеридан, Трой Оглтри, Софи Тэйлор Али, Даниэль Гарсия, Жак Холлэнд, Эндрю Подза
Сюжет фильма:
Очнувшись в больнице, полицейский офицер с удивлением обнаруживает, что он находится в центре зомби-апокалипсиса. Теперь ему придется приложить максимум усилий, чтобы найти свою семью.

  • Мировая премьера: 15 марта 2015


Качество видео: WEB-DLRip

Продолжительность: 01:28:44
Формат: AVI
Видео: XviD, 720x400 (16:9), 23.976 fps, 1723 kbps
Аудио #1: русский, профессиональный многоголосый закадровый (Студия Kansai), AC3 2.0, 48 kHz, 192 kbps
Аудио #2: английский, оригинал, AC3 5.1, 48 kHz, 448 kbps

Код:

Общее
Полное имя : Progulki.s.mertvecami.2015.P.HDRip.avi
Формат : AVI
Формат/Информация : Audio Video Interleave
Размер файла : 1,47 Гбайт
Продолжительность : 1 ч. 28 м.
Общий поток : 2376 Кбит/сек
Программа кодирования : VirtualDubMod 1.5.10.2 (build 2540/release)
Библиотека кодирования : VirtualDubMod build 2540/release

Видео
Идентификатор : 0
Формат : MPEG-4 Visual
Профиль формата : Advanced Simple@L5
Параметр BVOP формата : 2
Параметр QPel формата : Нет
Параметр GMC формата : Без точки перехода
Параметр матрицы формата : Default (H.263)
Режим смешивания : Сжатый битовый поток
Идентификатор кодека : XVID
Идентификатор кодека/Подсказка : XviD
Продолжительность : 1 ч. 28 м.
Битрейт : 1723 Кбит/сек
Ширина : 720 пикселей
Высота : 400 пикселей
Соотношение сторон : 16:9
Частота кадров : 23,976 кадра/сек
Цветовое пространство : YUV
Субдискретизация насыщенности : 4:2:0
Битовая глубина : 8 бит
Тип развёртки : Прогрессивная
Метод сжатия : С потерями
Бит/(Пиксели*Кадры) : 0.250
Размер потока : 1,07 Гбайт (73%)
Библиотека кодирования : XviD 73

Аудио #1
Идентификатор : 1
Формат : AC-3
Формат/Информация : Audio Coding 3
Расширение режима : CM (complete main)
Идентификатор кодека : 2000
Продолжительность : 1 ч. 28 м.
Вид битрейта : Постоянный
Битрейт : 192 Кбит/сек
Каналы : 2 канала
Расположение каналов : Front: L R
Частота : 48,0 КГц
Битовая глубина : 16 бит
Метод сжатия : С потерями
Размер потока : 121 Мбайт (8%)
Выравнивание : Разделение по промежуткам
Продолжительность промежутка : 42 мс. (1,01 видеокадр)
Время предзагрузки промежутка : 500 мс.

Аудио #2
Идентификатор : 2
Формат : AC-3
Формат/Информация : Audio Coding 3
Расширение режима : CM (complete main)
Идентификатор кодека : 2000
Продолжительность : 1 ч. 28 м.
Вид битрейта : Постоянный
Битрейт : 448 Кбит/сек
Каналы : 6 каналов
Расположение каналов : Front: L C R, Side: L R, LFE
Частота : 48,0 КГц
Битовая глубина : 16 бит
Метод сжатия : С потерями
Размер потока : 284 Мбайт (19%)
Выравнивание : Разделение по промежуткам
Продолжительность промежутка : 42 мс. (1,00 видеокадр)
Время предзагрузки промежутка : 500 мс.
picpicpicpicpic
Для увеличения картинки щелкните мышкой по превью

Этот торрент недоступен для скачивания без регистрации, однако доступен по публичной magnet-ссылке (источники с публичных трекеров). Перед использованием ссылки прочтите, пожалуйста Пользовательское соглашение, а также как можно дольше оставайтесь на раздаче! Для того, чтобы скачать сам торрент-файл (который видит больше источников), а также для того, чтобы поблагодарить релизера, вам необходимо зарегистрироваться. Если регистрироваться лень - вы можете также попробовать скачать релиз по нашим партнерским ссылкам ниже.

[underverse.su].t58730.torrent
Трекер: Зарегистрирован   [ 30.09.2015 11:28 ]  

Статус: проверено (by makkol at 03.10.2015 11:25)
Поблагодарили: 1 человек
Тип торрента: публичный - доступные источники с открытых трекеров: 
Размер: 1,47 GB (занимает 0,34 DVDR, для записи нужно 1 болванка DVDR/RW)
 
 
Похожие темы
Форум Тема Автор Торрент Отв. Посл. сооб.
T Зарубежное кино [DVDRip, Low-Res HDRip, и т.д.] Прогулка среди могил / A Walk Among the Tombstones (Скотт Фрэнк) [2014 г., Триллер, Драма, Криминал, WEBRip] DVO (RUS, Сладкая парочка) + Subs (CHN) Ведьмочка
1 | 0

0 | 1218

61

11.10.2014 04:41

T Зарубежное кино [DVDRip, Low-Res HDRip, и т.д.] Прогулка среди могил / A Walk Among the Tombstones (Скотт Фрэнк) [2014 г., Триллер, Драма, Криминал, WEBRip] DVO (RUS, Сладкая парочка) + Original (ENG) + Subs (CHN) Ведьмочка
1 | 0

0 | 993

60

11.10.2014 11:58

Зарубежное кино [DVDRip, Low-Res HDRip, и т.д.] Прогулка среди могил / A Walk Among the Tombstones (Скотт Фрэнк) [2014 г., боевик, триллер, криминал, детектив, HDRip] MVO Паукан
2 | 1

1 | 599

32

08.01.2015 18:28

Зарубежное кино [DVDRip, Low-Res HDRip, и т.д.] Прогулка среди могил / A Walk Among the Tombstones (Скотт Фрэнк / Scott Frank) [2014 г., детектив, триллер, криминал, драма, HDRip] AVO (Есарев - без цензуры) 90ytr90
4 | 0

0 | 388

16

05.02.2015 05:56

T Зарубежное кино [DVDRip, Low-Res HDRip, и т.д.] Прогулка среди могил / A Walk Among the Tombstones (Скотт Фрэнк) [2014 г., детектив, триллер, криминал, драма, BDRip] Dub (Line) + Original makkol
79 | 1

0 | 607

12

25.02.2016 23:05

Зарубежное кино [HDDVDRip / BDRip / WEB-DL / HDTV 1080/720р] Прогулка среди могил / A Walk Among the Tombstones (Скотт Фрэнк) [2014 г., боевик, триллер, криминал, детектив, BDRip 720p] MVO + Original Паукан
1 | 0

0 | 519

24

31.12.2014 14:42

Зарубежное кино [HDDVDRip / BDRip / WEB-DL / HDTV 1080/720р] Прогулка среди могил / A Walk Among the Tombstones (Скотт Фрэнк / Scott Frank) [2014 г., детектив, триллер, криминал, драма, BDRip 720p] 2xAVO (Есарев) + Original (Eng) + Sub (Eng) 90ytr90
34 | 3

0 | 352

4

05.02.2015 06:30

Зарубежное кино [HDDVDRip / BDRip / WEB-DL / HDTV 1080/720р] Прогулка среди могил / A Walk Among the Tombstones (Скотт Фрэнк / Scott Frank) [2014 г., детектив, триллер, криминал, драма, BDRip 1080p] 2xAVO (Есарев) + Original (Eng) + Sub (Eng) 90ytr90
23 | 1

0 | 375

9

05.02.2015 06:43

Зарубежное кино [HDDVDRip / BDRip / WEB-DL / HDTV 1080/720р] Прогулка с мертвецами / Walking with the Dead (Скотт Дау) [2015 г., комедия, WEB-DL 720p] MVO + Original makkol
3 | 0

0 | 424

12

30.09.2015 11:44

T Зарубежное кино [HDDVDRip / BDRip / WEB-DL / HDTV 1080/720р] Прогулка среди могил / A Walk Among the Tombstones (Скотт Фрэнк) [2014 г., детектив, триллер, криминал, драма, BDRip 720p] Dub (Line) + Original makkol
28 | 4

0 | 468

5

25.02.2016 23:15


Яндекс.Метрика powered by Sphinx


В Н И М А Н И Е
Сайт не распространяет и не хранит электронные версии произведений, а лишь бесплатно и без коммерческой выгоды (не требуя взамен платы,
SMS и т.д.) предоставляет доступ к создаваемому пользователями каталогу ссылок на торрент-файлы, которые содержат только списки хеш-сумм.
Убедительная просьба с жалобами обращаться напрямую к пользователю, разместившему торрент файл.

Вверх