Loading...
Error

13 грехов / 13 Sins (Даниэль Штамм) [2014 г., триллер, ужасы, мистика, HDRip] Dub

Статистика раздачи
Размер:  1,41 GB   |    Зарегистрирован:  1 год 2 месяца   |    Скачан:  22 раза

Полного источника не было: 6 дней

Сидов:  0  |  0 KB/s  ]   Личеров:  0  |  0 KB/s  ]

* - сиды/пиры с внешних источников

   
 
Автор Сообщение

makkol Пол:Муж

29-Сен-2015 13:15

13 грехов / 13 Sins
«Играешь не ты, играют тобой»


Год выпуска: 2014
Жанр: триллер, ужасы, мистика
Производство: США [Little Magic Films, Automatik Entertainment, IM Global]
Режиссер: Даниэль Штамм
В ролях: Марк Веббер, Рутина Уэсли, Девон Грайе, Прюитт Тейлор Винс, Том Бауэр, Рон Перлман, Клайд Джонс, Денин Тайлер, Грег Пирсон, Ричи Монтгомери
Сюжет фильма:
Эллиот Бриндл — умный кроткий сотрудник службы социального обеспечения, тонущий в долгах. Но все меняется, когда раздается телефонный звонок. На том конце провода ему сообщают, что он становится участником тв-шоу, условия простые — выполнить 13 заданий, какими бы странными они не были; приз — деньги, которые копятся с каждым выполненным заданием. Отказ от выполнения или провал задания ведет к обнулению банка. Деньги можно забрать только выполнив все 13 заданий ведущего. Эллиот следует первым инструкциям и с легкостью съедает пойманную муху. На счету Бриндла появляются первые легкие деньги. Эллиот хочет, но не может прекратить игру, чтобы не потерять «заработанное», хотя задачи становятся более изощренными и опасными, а точка невозврата вот-вот будет пройдена.

  • Мировая премьера: 7 марта 2014
  • Российская премьера: 29 мая 2014


Качество видео: HDRip

Продолжительность: 01:32:31
Формат: AVI
Видео: XviD, 720x304 (2.35:1), 23.976 fps, 1722 kbps
Аудио: русский, дублированный (НТВ+), AC3 5.1, 48 kHz, 448 kbps

Код:

Общее
Полное имя : 13 grehov 2014 HDRip.avi
Формат : AVI
Формат/Информация : Audio Video Interleave
Размер файла : 1,41 Гбайт
Продолжительность : 1 ч. 32 м.
Общий поток : 2178 Кбит/сек
Программа кодирования : VirtualDubMod 1.5.10.2 (build 2540/release)
Библиотека кодирования : VirtualDubMod build 2540/release

Видео
Идентификатор : 0
Формат : MPEG-4 Visual
Профиль формата : Advanced Simple@L5
Параметр BVOP формата : 2
Параметр QPel формата : Нет
Параметр GMC формата : Без точки перехода
Параметр матрицы формата : Выборочная
Идентификатор кодека : XVID
Идентификатор кодека/Подсказка : XviD
Продолжительность : 1 ч. 32 м.
Битрейт : 1722 Кбит/сек
Ширина : 720 пикселей
Высота : 304 пикселя
Соотношение сторон : 2,35:1
Частота кадров : 23,976 кадра/сек
Цветовое пространство : YUV
Субдискретизация насыщенности : 4:2:0
Битовая глубина : 8 бит
Тип развёртки : Прогрессивная
Метод сжатия : С потерями
Бит/(Пиксели*Кадры) : 0.328
Размер потока : 1,11 Гбайт (79%)
Библиотека кодирования : XviD 1.2.1 (UTC 2008-12-04)

Аудио
Идентификатор : 1
Формат : AC-3
Формат/Информация : Audio Coding 3
Расширение режима : CM (complete main)
Идентификатор кодека : 2000
Продолжительность : 1 ч. 32 м.
Вид битрейта : Постоянный
Битрейт : 448 Кбит/сек
Каналы : 6 каналов
Расположение каналов : Front: L C R, Side: L R, LFE
Частота : 48,0 КГц
Битовая глубина : 16 бит
Метод сжатия : С потерями
Размер потока : 296 Мбайт (21%)
Выравнивание : Разделение по промежуткам
Продолжительность промежутка : 42 мс. (1,00 видеокадр)
Время предзагрузки промежутка : 500 мс.
picpicpicpicpic
Для увеличения картинки щелкните мышкой по превью

Этот торрент недоступен для скачивания без регистрации, однако доступен по публичной magnet-ссылке (источники с публичных трекеров). Перед использованием ссылки прочтите, пожалуйста Пользовательское соглашение, а также как можно дольше оставайтесь на раздаче! Для того, чтобы скачать сам торрент-файл (который видит больше источников), а также для того, чтобы поблагодарить релизера, вам необходимо зарегистрироваться. Если регистрироваться лень - вы можете также попробовать скачать релиз по нашим партнерским ссылкам ниже.

[underverse.su].t58711.torrent
Трекер: Зарегистрирован   [ 29.09.2015 13:15 ]  

Статус: проверено (by makkol at 03.10.2015 11:17)
Поблагодарили: пока никто не поблагодарил...
Тип торрента: публичный - доступные источники с открытых трекеров: 
Размер: 1,41 GB (занимает 0,32 DVDR, для записи нужно 1 болванка DVDR/RW)
 
 
Похожие темы
Форум Тема Автор Торрент Отв. Посл. сооб.
Зарубежное кино [DVDRip, Low-Res HDRip, и т.д.] 13 грехов / 13 Sins (Даниэль Штамм / Daniel Stamm) [2014 г., триллер, ужасы, WEB-DLRip] VO (R.A.I.M) 90ytr90
83 | 5

0 | 959

53

17.04.2014 05:50

T Зарубежное кино [DVDRip, Low-Res HDRip, и т.д.] 13 грехов / 13 Sins (Даниэль Штамм / Daniel Stamm) [2014 г., триллер, ужасы, HDRip] Dub (чистый звук) 90ytr90
3 | 0

0 | 564

40

10.01.2015 16:50

Зарубежное кино [HDDVDRip / BDRip / WEB-DL / HDTV 1080/720р] 13 грехов / 13 Sins (Даниэль Штамм / Daniel Stamm) [2014 г., триллер, ужасы, WEB-DL 720p] VO (R.A.I.M) + Original (Eng) + Sub (Rus, Eng) 90ytr90
29 | 0

1 | 770

53

19.04.2014 14:28

T Зарубежное кино [HDDVDRip / BDRip / WEB-DL / HDTV 1080/720р] 13 грехов / 13 Sins (Даниэль Штамм / Daniel Stamm) [2014 г., триллер, ужасы, BDRip 720p] Dub (чистый звук) + Original (Eng) + Sub (Rus, Eng) 90ytr90
76 | 0

0 | 580

22

10.01.2015 16:56

T Зарубежное кино [HDDVDRip / BDRip / WEB-DL / HDTV 1080/720р] 13 грехов / 13 Sins (Даниэль Штамм / Daniel Stamm) [2014 г., триллер, ужасы, BDRip 1080p] Dub (чистый звук) + Original (Eng) + Sub (Rus, Eng) 90ytr90
41 | 4

0 | 542

18

10.01.2015 17:03

Зарубежное кино [HDDVDRip / BDRip / WEB-DL / HDTV 1080/720р] 13 грехов / 13 Sins (Даниэль Штамм) [2014 г., триллер, ужасы, мистика, BDRip 1080p] Dub + DVO + Original + Subs makkol
40 | 2

0 | 530

16

29.09.2015 14:33


Яндекс.Метрика powered by Sphinx


В Н И М А Н И Е
Сайт не распространяет и не хранит электронные версии произведений, а лишь бесплатно и без коммерческой выгоды (не требуя взамен платы,
SMS и т.д.) предоставляет доступ к создаваемому пользователями каталогу ссылок на торрент-файлы, которые содержат только списки хеш-сумм.
Убедительная просьба с жалобами обращаться напрямую к пользователю, разместившему торрент файл.

Вверх