Loading...
Error

Эдем / Eden (Шиам Мадиражу) [2014 г., триллер, драма, WEB-DLRip] MVO

Статистика раздачи
Размер:  1,45 GB   |    Зарегистрирован:  1 год 2 месяца   |    Скачан:  25 раз

Полного источника не было: 5 часов

Сидов:  0  |  0 KB/s  ]   Личеров:  0  |  0 KB/s  ]

* - сиды/пиры с внешних источников

   
 
Автор Сообщение

makkol Пол:Муж

29-Сен-2015 07:45

Эдем / Eden


Год выпуска: 2014
Жанр: триллер, драма
Производство: Испания , Малайзия [Gobsmack, H&H Creative Ventures, Ombra Films]
Режиссер: Шиам Мадиражу
В ролях: Джессика Лаундес, Джеймс Римар, Санг Кенг, Диего Бонета, Нэйт Паркер, Роб Майес, Юджин Саймон, Итан Пек, Марио Касас, Джои Поллари
Сюжет фильма:
После падения самолета у берегов необитаемого острова, выжившие члены международной команды по футболу сталкиваются одновременно и с дикой природой, и с ухудшением психики своих же товарищей.

  • Мировая премьера: 19 ноября 2014


Качество видео: WEB-DLRip

Продолжительность: 01:36:26
Формат: AVI
Видео: XviD, 720x304 (2.35:1), 23.976 fps, 1958 kbps
Аудио: русский, любительский многоголосый закадровый, AC3 2.0, 48 kHz, 192 kbps

Код:

Format : AVI
Format/Info : Audio Video Interleave
File size : 1.45 GiB
Duration : 1h 36mn
Overall bit rate : 2 159 Kbps
Writing application : VirtualDubMod 1.5.10.3 | www.virtualdub-fr.org || (build 2550/release)
Writing library : VirtualDubMod build 2550/release

Video
ID : 0
Format : MPEG-4 Visual
Format profile : Advanced Simple@L5
Format settings, BVOP : 2
Format settings, QPel : No
Format settings, GMC : No warppoints
Format settings, Matrix : Default (MPEG)
Codec ID : XVID
Codec ID/Hint : XviD
Duration : 1h 36mn
Bit rate : 1 958 Kbps
Width : 720 pixels
Height : 304 pixels
Display aspect ratio : 2.35:1
Frame rate : 23.976 fps
Color space : YUV
Chroma subsampling : 4:2:0
Bit depth : 8 bits
Scan type : Progressive
Compression mode : Lossy
Bits/(Pixel*Frame) : 0.373
Stream size : 1.32 GiB (91%)
Writing library : XviD 1.2.1 (UTC 2008-12-04)

Audio
ID : 1
Format : AC-3
Format/Info : Audio Coding 3
Mode extension : CM (complete main)
Format settings, Endianness : Big
Codec ID : 2000
Duration : 1h 36mn
Bit rate mode : Constant
Bit rate : 192 Kbps
Channel(s) : 2 channels
Channel positions : Front: L R
Sampling rate : 48.0 KHz
Bit depth : 16 bits
Compression mode : Lossy
Stream size : 132 MiB (9%)
Alignment : Split accross interleaves
Interleave, duration : 42 ms (1.00 video frame)
Interleave, preload duration : 500 ms
Перевод и озвучка: Любительский многоголосый (GreenРай Studio)
Состав дикторов: Райм, Баира, datynet и Badcatstudio
Фильм переведен: Сергей Гиллан
Звукорежиссёр: Ar_Dva
Технический редактор (рипер): Ciumac
Релиз-группа:
picpicpicpicpic
Для увеличения картинки щелкните мышкой по превью

Этот торрент недоступен для скачивания без регистрации, однако доступен по публичной magnet-ссылке (источники с публичных трекеров). Перед использованием ссылки прочтите, пожалуйста Пользовательское соглашение, а также как можно дольше оставайтесь на раздаче! Для того, чтобы скачать сам торрент-файл (который видит больше источников), а также для того, чтобы поблагодарить релизера, вам необходимо зарегистрироваться. Если регистрироваться лень - вы можете также попробовать скачать релиз по нашим партнерским ссылкам ниже.

[underverse.su].t58698.torrent
Трекер: Зарегистрирован   [ 29.09.2015 07:45 ]  

Статус: проверено (by makkol at 29.09.2015 11:37)
Поблагодарили: 1 человек
Тип торрента: публичный - доступные источники с открытых трекеров: 
Размер: 1,45 GB (занимает 1/3 DVDR, для записи нужно 1 болванка DVDR/RW)
 
 
Похожие темы
Форум Тема Автор Торрент Отв. Посл. сооб.
Зарубежное кино [HDDVDRip / BDRip / WEB-DL / HDTV 1080/720р] Эдем / Eden (Шиам Мадиражу) [2014 г., триллер, драма, WEB-DL 720p] MVO + Original makkol
10 | 2

0 | 299

14

29.09.2015 07:56


Яндекс.Метрика powered by Sphinx


В Н И М А Н И Е
Сайт не распространяет и не хранит электронные версии произведений, а лишь бесплатно и без коммерческой выгоды (не требуя взамен платы,
SMS и т.д.) предоставляет доступ к создаваемому пользователями каталогу ссылок на торрент-файлы, которые содержат только списки хеш-сумм.
Убедительная просьба с жалобами обращаться напрямую к пользователю, разместившему торрент файл.

Вверх