Loading...
Error

Акла / Acla's Decent Into Floristella / La discesa di Acla a Floristella (Аурелио Гримальди) [1992 г., драма, VHSRip] AVO

Статистика раздачи
Размер:  901 MB   |    Зарегистрирован:  10 месяцев   |    Скачан:  2 раза

Полного источника не было: 6 месяцев

Сидов:  0  |  0 KB/s  ]   Личеров:  0  |  0 KB/s  ]

* - сиды/пиры с внешних источников

   
 
Автор Сообщение

makkol Пол:Муж

27-Сен-2015 13:55

Акла / Acla's Decent Into Floristella / La discesa di Aclà a Floristella


Год выпуска: 1992
Жанр: драма
Страна: Италия
Режиссер: Аурелио Гримальди
В ролях: Франческо Кузимано, Тони Сперандео, Луиджи Мария Бурруано, Люсия Сардо, Джованни Аламия, Бенедетто Ранели, Джузеппе Кузимано, Рита Барбанера, Сальваторе Шианна, Игнацио Донато
Сюжет фильма:
Хроники жизни Сицилии 30-х годов. 11 летнего мальчика по имени Акла родители продают хозяину подземного рудника, где добывают серу, где тому приходится работать каждый день, кроме воскресенья, чтобы помочь прокормить семью. Жестокий хозяин часто избивает его, к нему пристают с сексуальными домогательствами, так как гомосексуальные отношения в те времена для Сицилии являются нормой. В этом аду возникла мечта о море, по которому можно добраться до сказочной страны Австралии. В ней давно живет взрослая замужняя сестра, которая изредка пишет письма, присылает немного денег… Можно ли, живя на острове, мечтать о море? Можно, если оно безумно далеко. Для мальчика – так же, как и Австралия. Но свою мечту он попытался осуществить…
Правдивый, страшный и жестокий фильм. Но в то-же время, в определенном отношении — это очень трогательная история!

  • Мировая премьера: 10 сентября 1992


Качество видео: VHSRip

Продолжительность: 01:24:21
Формат: AVI
Видео: DivX, 640x480 (4:3), 23.976 fps, 1291 kbps
Аудио: русский, авторский одноголосый закадровый (Сергей Кузнецов), MP3 2.0, 44.1 kHz, 192 kbps
Субтитры: английские вшитые неотключаемые

Код:

Общее
Полное имя                               : Акла.avi
Формат                                   : AVI
Формат/Информация                        : Audio Video Interleave
Размер файла                             : 901 Мбайт
Продолжительность                        : 1 ч. 24 м.
Общий поток                              : 1493 Кбит/сек
Библиотека кодирования                   : VirtualDub build 23604/release

Видео
Идентификатор                            : 0
Формат                                   : MPEG-4 Visual
Параметр BVOP формата                    : Да
Параметр QPel формата                    : Нет
Параметр GMC формата                     : Без точки перехода
Параметр матрицы формата                 : Default (H.263)
Идентификатор кодека                     : DX50
Идентификатор кодека/Подсказка           : DivX 5
Продолжительность                        : 1 ч. 24 м.
Битрейт                                  : 1291 Кбит/сек
Ширина                                   : 640 пикселей
Высота                                   : 480 пикселей
Соотношение сторон                       : 4:3
Частота кадров                           : 23,976 кадра/сек
Цветовое пространство                    : YUV
Субдискретизация насыщенности            : 4:2:0
Битовая глубина                          : 8 бит
Тип развёртки                            : Прогрессивная
Метод сжатия                             : С потерями
Бит/(Пиксели*Кадры)                      : 0.175
Размер потока                            : 779 Мбайт (87%)
Библиотека кодирования                   : DivX 5.2.0 (UTC 2004-07-15)

Аудио
Идентификатор                            : 1
Формат                                   : MPEG Audio
Версия формата                           : Version 1
Профиль формата                          : Layer 3
Идентификатор кодека                     : 55
Идентификатор кодека/Подсказка           : MP3
Продолжительность                        : 1 ч. 24 м.
Вид битрейта                             : Постоянный
Битрейт                                  : 192 Кбит/сек
Каналы                                   : 2 канала
Частота                                  : 44,1 КГц
Метод сжатия                             : С потерями
Задержка видео                           : 26 мс.
Размер потока                            : 116 Мбайт (13%)
Выравнивание                             : Разделение по промежуткам
Продолжительность промежутка             : 42  мс. (1,00 видеокадр)
Время предзагрузки промежутка            : 500  мс.
picpicpicpicpic
Для увеличения картинки щелкните мышкой по превью

Этот торрент недоступен для скачивания без регистрации, однако доступен по публичной magnet-ссылке (источники с публичных трекеров). Перед использованием ссылки прочтите, пожалуйста Пользовательское соглашение, а также как можно дольше оставайтесь на раздаче! Для того, чтобы скачать сам торрент-файл (который видит больше источников), а также для того, чтобы поблагодарить релизера, вам необходимо зарегистрироваться. Если регистрироваться лень - вы можете также попробовать скачать релиз по нашим партнерским ссылкам ниже.

[underverse.su].t58660.torrent
Трекер: Зарегистрирован   [ 02.02.2016 11:43 ]  

Статус: проверено (by makkol at 02.02.2016 11:43)
Поблагодарили: пока никто не поблагодарил...
Тип торрента: публичный - доступные источники с открытых трекеров: 
Размер: 901 MB (занимает 0,2 DVDR, для записи нужно 1 болванка DVDR/RW)
 
 

Яндекс.Метрика powered by Sphinx


В Н И М А Н И Е
Сайт не распространяет и не хранит электронные версии произведений, а лишь бесплатно и без коммерческой выгоды (не требуя взамен платы,
SMS и т.д.) предоставляет доступ к создаваемому пользователями каталогу ссылок на торрент-файлы, которые содержат только списки хеш-сумм.
Убедительная просьба с жалобами обращаться напрямую к пользователю, разместившему торрент файл.

Вверх