Loading...
Error

Эйс Вентура: Розыск домашних животных / Ace Ventura: Pet Detective (Том Шэдьяк) [1994 г., комедия, BDRip-AVC] 2xDub + 2xMVO + 3xAVO + Original + Subs

Статистика раздачи
Размер:  3,49 GB   |    Зарегистрирован:  1 год 2 месяца   |    Скачан:  6 раз

Полного источника не было: 3 месяца 11 дней

Сидов:  0  |  0 KB/s  ]   Личеров:  0  |  0 KB/s  ]

* - сиды/пиры с внешних источников

   
 
Автор Сообщение

mentic77 Пол:Муж

26-Сен-2015 23:50

Эйс Вентура: Розыск домашних животных / Ace Ventura: Pet Detective


Год выпуска: 1994
Жанр: комедия
Страна: США
Режиссер: Том Шэдьяк
В ролях: Джим Керри, Кортни Кокс, Шон Янг, Тоун Лок, Ноубл Уиллингэм, Трой Эванс, Рейнор Шайни, Удо Кир, Фрэнк Адонис, Тайни Рон, Дэвид Маргулис, Джон Каподиче, Джуди Клэйтон, Билл Закерт, Элис Драммонд, Ребекка Ферратти, Марк Марголис, Энтони Короне, Марго Пиис
Сюжет фильма:
Он — лучший в своем деле, единственный и неповторимый! Он — Эйс Вентура, детектив по розыску домашних любимцев. Когда таинственные злоумышленники похищают дельфина по кличке «Снежинка», талисман местной футбольной команды «Дельфины», Эйс тут же приступает к работе, проявляя чудеса изобретательности.

История принимает странный оборот, когда похищают еще и ведущего игрока «Дельфинов». Теперь Эйсу приходится разыскивать сразу двух млекопитающих. Он сталкивается «нос к носу» с акулой-людоедом, спасает любимую команду и очаровывает женщин. Находится ли он «под прикрытием», под огнем или под водой, он обязательно найдет то, что ищет!

  • Мировая премьера: 4 февраля 1994


Качество видео: BDRip-AVC

Продолжительность: 01:26:00
Формат: MKV
Видео: MPEG-4 AVC, 1024x576, 23.976 fps, 3500 kbps
Аудио #1: русский, дублированный (Neva), AC3 2.0, 48 kHz, 192 kbps
Аудио #2: русский, дублированный (Варус видео), AC3 2.0, 48 kHz, 192 kbps
Аудио #3: русский, профессиональный многоголосый (D2lab), AC3 5.1, 48 kHz, 448 kbps
Аудио #4: русский, профессиональный многоголосый (ТНТ), AC3 2.0, 48 kHz, 192 kbps
Аудио #5: русский, авторский одноголосый (А. Михалёв), AC3 5.1, 48 kHz, 448 kbps
Аудио #6: русский, авторский одноголосый (А. Кузнецов), AC3 2.0, 48 kHz, 192 kbps
Аудио #7: русский, авторский одноголосый (В. Махонько), AC3 2.0, 48 kHz, 192 kbps
Аудио #8: английский, оригинал, AC3 5.1, 48 kHz, 448 kbps
Субтитры: русские, английские вшитые отключаемые

Код:

Общее
Уникальный идентификатор : 237953539082255242338733867704828156908 (0xB3042F43DB04B3BFB64D017DF6B1DBEC)
Полное имя : Ace.Ventura.Pet.Detective.1994.BDRip.(AVC)-MediaClub.mkv
Формат : Matroska
Версия формата : Version 4 / Version 2
Размер файла : 3,49 Гбайт
Продолжительность : 1 ч. 26 м.
Общий поток : 5807 Кбит/сек
Название фильма : -=MdiaClub-kaspr=-
Дата кодирования : UTC 2013-08-31 10:58:55
Программа кодирования : mkvmerge v6.3.0 ('You can't stop me!') built on Jul 19 2013 16:27:38
Библиотека кодирования : libebml v1.3.0 + libmatroska v1.4.1

Видео
Идентификатор : 1
Формат : AVC
Формат/Информация : Advanced Video Codec
Профиль формата : High@L4.1
Параметр CABAC формата : Да
Параметр ReFrames формата : 9 кадров
Идентификатор кодека : V_MPEG4/ISO/AVC
Продолжительность : 1 ч. 26 м.
Битрейт : 3500 Кбит/сек
Ширина : 1024 пикселя
Высота : 576 пикселей
Соотношение сторон : 16:9
Режим частоты кадров : Постоянный
Частота кадров : 23,976 кадра/сек
Цветовое пространство : YUV
Субдискретизация насыщенности : 4:2:0
Битовая глубина : 8 бит
Тип развёртки : Прогрессивная
Бит/(Пиксели*Кадры) : 0.247
Размер потока : 2,04 Гбайт (58%)
Заголовок : -=MdiaClub-kaspr=-
Библиотека кодирования : x264 core 130 r2273 b3065e6
Настройки программы : cabac=1 / ref=9 / deblock=1:-3:-3 / analyse=0x3:0x133 / me=umh / subme=11 / psy=1 / psy_rd=1.00:0.20 / mixed_ref=1 / me_range=48 / chroma_me=1 / trellis=2 / 8x8dct=1 / cqm=0 / deadzone=21,11 / fast_pskip=0 / chroma_qp_offset=-3 / threads=12 / lookahead_threads=3 / sliced_threads=0 / nr=0 / decimate=0 / interlaced=0 / bluray_compat=0 / constrained_intra=0 / bframes=10 / b_pyramid=2 / b_adapt=2 / b_bias=0 / direct=3 / weightb=1 / open_gop=0 / weightp=2 / keyint=240 / keyint_min=23 / scenecut=40 / intra_refresh=0 / rc=2pass / mbtree=0 / bitrate=3500 / ratetol=1.0 / qcomp=0.60 / qpmin=0 / qpmax=69 / qpstep=4 / cplxblur=20.0 / qblur=0.5 / ip_ratio=1.40 / pb_ratio=1.30 / aq=1:1.00
Default : Да
Forced : Нет

Аудио #1
Идентификатор : 2
Формат : AC-3
Формат/Информация : Audio Coding 3
Расширение режима : CM (complete main)
Параметр Endianness формата : Big
Идентификатор кодека : A_AC3
Продолжительность : 1 ч. 26 м.
Вид битрейта : Постоянный
Битрейт : 192 Кбит/сек
Каналы : 2 канала
Расположение каналов : Front: L R
Частота : 48,0 КГц
Битовая глубина : 16 бит
Метод сжатия : С потерями
Размер потока : 118 Мбайт (3%)
Заголовок : Дубляж (Нева)
Язык : Russian
Default : Да
Forced : Да

Аудио #2
Идентификатор : 3
Формат : AC-3
Формат/Информация : Audio Coding 3
Расширение режима : CM (complete main)
Параметр Endianness формата : Big
Идентификатор кодека : A_AC3
Продолжительность : 1 ч. 26 м.
Вид битрейта : Постоянный
Битрейт : 192 Кбит/сек
Каналы : 2 канала
Расположение каналов : Front: L R
Частота : 48,0 КГц
Битовая глубина : 16 бит
Метод сжатия : С потерями
Размер потока : 118 Мбайт (3%)
Заголовок : Дубляж (Варус видео)
Язык : Russian
Default : Нет
Forced : Нет

Аудио #3
Идентификатор : 4
Формат : AC-3
Формат/Информация : Audio Coding 3
Расширение режима : CM (complete main)
Параметр Endianness формата : Big
Идентификатор кодека : A_AC3
Продолжительность : 1 ч. 26 м.
Вид битрейта : Постоянный
Битрейт : 448 Кбит/сек
Каналы : 6 каналов
Расположение каналов : Front: L C R, Side: L R, LFE
Частота : 48,0 КГц
Битовая глубина : 16 бит
Метод сжатия : С потерями
Размер потока : 276 Мбайт (8%)
Заголовок : ПМ (D2lab)
Язык : Russian
Default : Нет
Forced : Нет

Аудио #4
Идентификатор : 5
Формат : AC-3
Формат/Информация : Audio Coding 3
Расширение режима : CM (complete main)
Параметр Endianness формата : Big
Идентификатор кодека : A_AC3
Продолжительность : 1 ч. 26 м.
Вид битрейта : Постоянный
Битрейт : 192 Кбит/сек
Каналы : 2 канала
Расположение каналов : Front: L R
Частота : 48,0 КГц
Битовая глубина : 16 бит
Метод сжатия : С потерями
Размер потока : 118 Мбайт (3%)
Заголовок : ПМ (ТНТ)
Язык : Russian
Default : Нет
Forced : Нет

Аудио #5
Идентификатор : 6
Формат : AC-3
Формат/Информация : Audio Coding 3
Расширение режима : CM (complete main)
Параметр Endianness формата : Big
Идентификатор кодека : A_AC3
Продолжительность : 1 ч. 26 м.
Вид битрейта : Постоянный
Битрейт : 448 Кбит/сек
Каналы : 6 каналов
Расположение каналов : Front: L C R, Side: L R, LFE
Частота : 48,0 КГц
Битовая глубина : 16 бит
Метод сжатия : С потерями
Размер потока : 276 Мбайт (8%)
Заголовок : А. Михлёв
Язык : Russian
Default : Нет
Forced : Нет

Аудио #6
Идентификатор : 7
Формат : AC-3
Формат/Информация : Audio Coding 3
Расширение режима : CM (complete main)
Параметр Endianness формата : Big
Идентификатор кодека : A_AC3
Продолжительность : 1 ч. 26 м.
Вид битрейта : Постоянный
Битрейт : 192 Кбит/сек
Каналы : 2 канала
Расположение каналов : Front: L R
Частота : 48,0 КГц
Битовая глубина : 16 бит
Метод сжатия : С потерями
Размер потока : 118 Мбайт (3%)
Заголовок : А. Кузнецов
Язык : Russian
Default : Нет
Forced : Нет

Аудио #7
Идентификатор : 8
Формат : AC-3
Формат/Информация : Audio Coding 3
Расширение режима : CM (complete main)
Параметр Endianness формата : Big
Идентификатор кодека : A_AC3
Продолжительность : 1 ч. 26 м.
Вид битрейта : Постоянный
Битрейт : 192 Кбит/сек
Каналы : 2 канала
Расположение каналов : Front: L R
Частота : 48,0 КГц
Битовая глубина : 16 бит
Метод сжатия : С потерями
Размер потока : 118 Мбайт (3%)
Заголовок : В. Махонько
Язык : Russian
Default : Нет
Forced : Нет

Аудио #8
Идентификатор : 9
Формат : AC-3
Формат/Информация : Audio Coding 3
Расширение режима : CM (complete main)
Параметр Endianness формата : Big
Идентификатор кодека : A_AC3
Продолжительность : 1 ч. 26 м.
Вид битрейта : Постоянный
Битрейт : 448 Кбит/сек
Каналы : 6 каналов
Расположение каналов : Front: L C R, Side: L R, LFE
Частота : 48,0 КГц
Битовая глубина : 16 бит
Метод сжатия : С потерями
Размер потока : 276 Мбайт (8%)
Заголовок : Оригинал
Язык : English
Default : Нет
Forced : Нет

Текст #1
Идентификатор : 10
Формат : UTF-8
Идентификатор кодека : S_TEXT/UTF8
Идентификатор кодека/Информация : UTF-8 Plain Text
Язык : Russian
Default : Нет
Forced : Нет

Текст #2
Идентификатор : 11
Формат : UTF-8
Идентификатор кодека : S_TEXT/UTF8
Идентификатор кодека/Информация : UTF-8 Plain Text
Язык : English
Default : Нет
Forced : Нет

Меню
00:00:00.000 : en:Chapter 01
00:03:39.010 : en:Chapter 02
00:05:47.847 : en:Chapter 03
00:06:43.318 : en:Chapter 04
00:07:49.050 : en:Chapter 05
00:11:01.202 : en:Chapter 06
00:13:28.641 : en:Chapter 07
00:15:01.525 : en:Chapter 08
00:18:12.925 : en:Chapter 09
00:22:55.415 : en:Chapter 10
00:25:42.290 : en:Chapter 11
00:28:20.072 : en:Chapter 12
00:33:16.411 : en:Chapter 13
00:36:44.202 : en:Chapter 14
00:38:35.146 : en:Chapter 15
00:42:58.117 : en:Chapter 16
00:46:30.454 : en:Chapter 17
00:47:49.157 : en:Chapter 18
00:52:26.893 : en:Chapter 19
00:54:37.482 : en:Chapter 20
00:58:17.452 : en:Chapter 21
01:00:40.303 : en:Chapter 22
01:04:04.590 : en:Chapter 23
01:07:41.891 : en:Chapter 24
01:10:39.526 : en:Chapter 25
01:12:20.794 : en:Chapter 26
01:14:09.111 : en:Chapter 27
01:15:41.078 : en:Chapter 28
01:19:33.310 : en:Chapter 29
01:21:59.539 : en:Chapter 30
picpicpic
Для увеличения картинки щелкните мышкой по превью

Этот торрент недоступен для скачивания без регистрации, однако доступен по публичной magnet-ссылке (источники с публичных трекеров). Перед использованием ссылки прочтите, пожалуйста Пользовательское соглашение, а также как можно дольше оставайтесь на раздаче! Для того, чтобы скачать сам торрент-файл (который видит больше источников), а также для того, чтобы поблагодарить релизера, вам необходимо зарегистрироваться. Если регистрироваться лень - вы можете также попробовать скачать релиз по нашим партнерским ссылкам ниже.

[underverse.su].t58652.torrent
Трекер: Зарегистрирован   [ 26.09.2015 23:50 ]  

Статус: проверено (by makkol at 11.10.2015 12:09)
Поблагодарили: пока никто не поблагодарил...
Тип торрента: публичный - доступные источники с открытых трекеров: 
Размер: 3,49 GB (занимает 0,8 DVDR, для записи нужно 1 болванка DVDR/RW)
 
 
Похожие темы
Форум Тема Автор Торрент Отв. Посл. сооб.
Зарубежное кино [DVDRip, Low-Res HDRip, и т.д.] Эйс Вентура 2: Когда зовет природа / Ace Ventura: When Nature Calls (Стив Одекерк) [1995 г., комедия, HDRip-AVC] DVO mentic77
1 | 0

1 | 349

5

26.09.2015 23:55


Яндекс.Метрика powered by Sphinx


В Н И М А Н И Е
Сайт не распространяет и не хранит электронные версии произведений, а лишь бесплатно и без коммерческой выгоды (не требуя взамен платы,
SMS и т.д.) предоставляет доступ к создаваемому пользователями каталогу ссылок на торрент-файлы, которые содержат только списки хеш-сумм.
Убедительная просьба с жалобами обращаться напрямую к пользователю, разместившему торрент файл.

Вверх