Loading...
Error

Аги и Эмма / Agi i Ema / Agi and Emma (Милутин Петрович) [2007 г., драма, комедия, семейный, DVDRip] VO + Original + Subs

Статистика раздачи
Размер:  1,38 GB   |    Зарегистрирован:  1 год 2 месяца   |    Скачан:  0 раз

Полного источника не было: 1 год 1 месяц

Сидов:  0  |  0 KB/s  ]   Личеров:  0  |  0 KB/s  ]

* - сиды/пиры с внешних источников

   
 
Автор Сообщение

makkol Пол:Муж

26-Сен-2015 23:18

Аги и Эмма / Agi i Ema / Agi and Emma


Год выпуска: 2007
Жанр: драма, комедия, семейный
Страна: Сербия
Режиссер: Милутин Петрович
В ролях: Стефан Лазаревич, Милена Дравич, Анна Софренович, Драган Мичанович, Никола Джуричко, Лена Богданович, Борис Миливоевич
Сюжет фильма:
9-летний Аги очень одинок. Его родители всегда заняты, на сына им вечно не хватает времени. К тому же, из-за бизнеса отца семье приходится постоянно переезжать с места на место, поэтому у Аги нет и друзей - он просто не успевает завести их. Однажды они въезжают в новый дом, где Аги знакомится с Эммой - любопытной и беспокойной старушкой, которая встречает мальчика с открытым сердцем и дает ему то, что ему требуется больше всего - безусловную дружбу. Вместе они начинают создавать удивительный волшебный мир, в котором Аги никогда не будет грустно и одиноко.
Очень трогательный, в меру смешной, местами абсурдистский фильм.

  • Мировая премьера: 7 июля 2007


Качество видео: DVDRip

Продолжительность: 01:25:44
Формат: AVI
Видео: XviD, 720x400 (16:9), 25.000 fps, 1890 kbps
Аудио #1: русский, любительский одноголосый закадровый, AC3 2.0, 48 kHz, 192 kbps
Аудио #2: сербский, оригинал, AC3 2.0, 48 kHz, 192 kbps
Субтитры: русские внешние, SRT

Код:

Общее
Полное имя                               : Аги и Эмма (2007, Сербия)_by barbos.avi
Формат                                   : AVI
Формат/Информация                        : Audio Video Interleave
Размер файла                             : 1,37 Гбайт
Продолжительность                        : 1 ч. 25 м.
Общий поток                              : 2288 Кбит/сек
Программа кодирования                    : VirtualDubMod 1.5.10.2 (build 2540/release)
Библиотека кодирования                   : VirtualDubMod build 2540/release

Видео
Идентификатор                            : 0
Формат                                   : MPEG-4 Visual
Профиль формата                          : Advanced Simple@L5
Параметр BVOP формата                    : 1
Параметр QPel формата                    : Нет
Параметр GMC формата                     : Без точки перехода
Параметр матрицы формата                 : Default (MPEG)
Идентификатор кодека                     : XVID
Идентификатор кодека/Подсказка           : XviD
Продолжительность                        : 1 ч. 25 м.
Битрейт                                  : 1890 Кбит/сек
Ширина                                   : 720 пикселей
Высота                                   : 400 пикселей
Соотношение сторон                       : 16:9
Частота кадров                           : 25,000 кадров/сек
Цветовое пространство                    : YUV
Субдискретизация насыщенности            : 4:2:0
Битовая глубина                          : 8 бит
Тип развёртки                            : Прогрессивная
Метод сжатия                             : С потерями
Бит/(Пиксели*Кадры)                      : 0.262
Размер потока                            : 1,13 Гбайт (83%)
Библиотека кодирования                   : XviD 1.2.1 (UTC 2008-12-04)

Аудио #1
Идентификатор                            : 1
Формат                                   : AC-3
Формат/Информация                        : Audio Coding 3
Расширение режима                        : CM (complete main)
Параметр Endianness формата              : Big
Идентификатор кодека                     : 2000
Продолжительность                        : 1 ч. 25 м.
Вид битрейта                             : Постоянный
Битрейт                                  : 192 Кбит/сек
Каналы                                   : 2 канала
Расположение каналов                     : Front: L R
Частота                                  : 48,0 КГц
Метод сжатия                             : С потерями
Размер потока                            : 118 Мбайт (8%)
Выравнивание                             : Разделение по промежуткам
Продолжительность промежутка             : 40  мс. (1,00 видеокадр)
Время предзагрузки промежутка            : 500  мс.

Аудио #2
Идентификатор                            : 2
Формат                                   : AC-3
Формат/Информация                        : Audio Coding 3
Расширение режима                        : CM (complete main)
Параметр Endianness формата              : Big
Идентификатор кодека                     : 2000
Продолжительность                        : 1 ч. 25 м.
Вид битрейта                             : Постоянный
Битрейт                                  : 192 Кбит/сек
Каналы                                   : 2 канала
Расположение каналов                     : Front: L R
Частота                                  : 48,0 КГц
Метод сжатия                             : С потерями
Размер потока                            : 118 Мбайт (8%)
Выравнивание                             : Разделение по промежуткам
Продолжительность промежутка             : 40  мс. (1,00 видеокадр)
Время предзагрузки промежутка            : 500  мс.
Перевод: 4ELBY (базовый); Алексей Крылов aka prostotak (адаптированный)
Озвучание: Евгений Венгеровский aka barbos
Релиз:
picpicpicpicpic
Для увеличения картинки щелкните мышкой по превью

Этот торрент недоступен для скачивания без регистрации, однако доступен по публичной magnet-ссылке (источники с публичных трекеров). Перед использованием ссылки прочтите, пожалуйста Пользовательское соглашение, а также как можно дольше оставайтесь на раздаче! Для того, чтобы скачать сам торрент-файл (который видит больше источников), а также для того, чтобы поблагодарить релизера, вам необходимо зарегистрироваться. Если регистрироваться лень - вы можете также попробовать скачать релиз по нашим партнерским ссылкам ниже.

[underverse.su].t58650.torrent
Трекер: Зарегистрирован   [ 26.09.2015 23:18 ]  

Статус: проверено (by makkol at 29.09.2015 11:25)
Поблагодарили: пока никто не поблагодарил...
Тип торрента: публичный - доступные источники с открытых трекеров: 
Размер: 1,38 GB (занимает 0,31 DVDR, для записи нужно 1 болванка DVDR/RW)
 
 

Яндекс.Метрика powered by Sphinx


В Н И М А Н И Е
Сайт не распространяет и не хранит электронные версии произведений, а лишь бесплатно и без коммерческой выгоды (не требуя взамен платы,
SMS и т.д.) предоставляет доступ к создаваемому пользователями каталогу ссылок на торрент-файлы, которые содержат только списки хеш-сумм.
Убедительная просьба с жалобами обращаться напрямую к пользователю, разместившему торрент файл.

Вверх