Loading...
Error

Герои: Возрождение / Heroes Reborn / Сезон 1 (1-10 серии из 13) (Лариса Кондрацки, Грег Биман, Мэтт Шекман) [2015 г., фэнтези, WEB-DLRip] MVO + Original

Статистика раздачи
Размер:  5,37 GB   |    Зарегистрирован:  1 год   |    Скачан:  6 раз

Полного источника не было: 6 месяцев

Сидов:  0  |  0 KB/s  ]   Личеров:  0  |  0 KB/s  ]

* - сиды/пиры с внешних источников

   
 
Автор Сообщение

older Пол:Муж

26-Сен-2015 14:06

Герои: Возрождение / Heroes Reborn / Сезон 1


Год выпуска: 2015
Жанр: фэнтези
Страна: США
Режиссер: Лариса Кондрацки, Грег Биман, Мэтт Шекман
В ролях: Джек Коулман, Франческа Фишер-Иствуд, Ной Грэй-Кэби, Гэтлин Грин, Грег Гранберг, Райан Гузман, Ив Харлоу, Джимми Жан-Луи, Робби Кей, Риа Килстедт
Сюжет фильма:
Сюжет будет вращаться вокруг группы людей, неожиданно обнаруживших у себя экстраординарные способности. Им предстоит столкнуться с теми, кто желает использовать их способности для своих гнусных целей…

Качество видео: WEB-DLRip

Продолжительность: ~ 00:43:00
Формат: AVI
Видео: XviD, 720х400, 1519 kbps
Аудио #1: русский, многоголосый закадровый [профессиональный], MP3 2.0, 128 kbps - BaibaKo
Аудио #2: английский, оригинал, MP3 2.0, 128 kbps

Код:

Общее
Полное имя                               : \Heroes. Reborn (S01) Baibako\Heroes.Reborn.S01E01.XviD.Baibako.[qqss44].avi
Формат                                   : AVI
Формат/Информация                        : Audio Video Interleave
Размер файла                             : 550 Мбайт
Продолжительность                        : 43 м.
Общий поток                              : 1789 Кбит/сек
Программа кодирования                    : VirtualDubMod 1.5.10.3 | www.virtualdub-fr.org || (build 2550/release)
Библиотека кодирования                   : VirtualDubMod build 2550/release

Видео
Идентификатор                            : 0
Формат                                   : MPEG-4 Visual
Профиль формата                          : Advanced Simple@L5
Параметр BVOP формата                    : 2
Параметр QPel формата                    : Нет
Параметр GMC формата                     : Без точки перехода
Параметр матрицы формата                 : Default (MPEG)
Идентификатор кодека                     : XVID
Идентификатор кодека/Подсказка           : XviD
Продолжительность                        : 43 м.
Битрейт                                  : 1519 Кбит/сек
Ширина                                   : 720 пикселей
Высота                                   : 400 пикселей
Соотношение сторон                       : 16:9
Частота кадров                           : 23,976 кадра/сек
Цветовое пространство                    : YUV
Субдискретизация насыщенности            : 4:2:0
Битовая глубина                          : 8 бит
Тип развёртки                            : Прогрессивная
Метод сжатия                             : С потерями
Бит/(Пиксели*Кадры)                      : 0.220
Размер потока                            : 467 Мбайт (85%)
Библиотека кодирования                   : XviD 73

Аудио #1
Идентификатор                            : 1
Формат                                   : MPEG Audio
Версия формата                           : Version 1
Профиль формата                          : Layer 3
Режим                                    : Joint stereo
Расширение режима                        : MS Stereo
Идентификатор кодека                     : 55
Идентификатор кодека/Подсказка           : MP3
Продолжительность                        : 43 м.
Вид битрейта                             : Постоянный
Битрейт                                  : 128 Кбит/сек
Каналы                                   : 2 канала
Частота                                  : 48,0 КГц
Метод сжатия                             : С потерями
Размер потока                            : 39,4 Мбайт (7%)
Выравнивание                             : Соединение по промежуткам
Продолжительность промежутка             : 42  мс. (1,00 видеокадр)
Время предзагрузки промежутка            : 504  мс.

Аудио #2
Идентификатор                            : 2
Формат                                   : MPEG Audio
Версия формата                           : Version 1
Профиль формата                          : Layer 3
Режим                                    : Joint stereo
Расширение режима                        : MS Stereo
Идентификатор кодека                     : 55
Идентификатор кодека/Подсказка           : MP3
Продолжительность                        : 43 м.
Вид битрейта                             : Постоянный
Битрейт                                  : 128 Кбит/сек
Каналы                                   : 2 канала
Частота                                  : 48,0 КГц
Метод сжатия                             : С потерями
Размер потока                            : 39,4 Мбайт (7%)
Выравнивание                             : Соединение по промежуткам
Продолжительность промежутка             : 42  мс. (1,00 видеокадр)
Время предзагрузки промежутка            : 504  мс.

Внимание! Раздача ведётся путём добавления новых серий.
При каждом добавлении создаётся новый торрент. Чтобы начать докачку новой серии, пользователям необходимо сделать следующее:
1. Остановить скачивание,
2. Удалить старый торрент у себя из клиента (старые серии удалять не надо),
3. Скачать новый торрент и запустить его у себя в клиенте вместо старого, при этом указать клиенту путь в старую папку куда и должно происходить скачивание новых серий.
Ваш клиент при этом должен произвести хеширование (проверку) старой папки (если не производит сам - помогите ему сделать это), и будет докачивать только те серии которых у вас ещё нет. Старые серии при этом не удаляются, а продолжают раздаваться!
Если вы уже удалили старые серии, то предотвратить повторную закачку старых серий можно, отжав галочку в соответствующих местах при запуске нового торрента.
Автор релиза: qqss44
Перевод и озвучание: Студия Baibako.
Перевод: vipere
Озвучка: Татьяна Оболевич, Юля Малахова, Акмал Гурезов и Александр Фурман
Монтаж: Виталий Ткаченко
picpicpicpicpic
Для увеличения картинки щелкните мышкой по превью


27.11.15. Раздача обновлена!
Добавлена 10 серия.
Перекачайте торрент файл!

Этот торрент недоступен для скачивания без регистрации, однако доступен по публичной magnet-ссылке (источники с публичных трекеров). Перед использованием ссылки прочтите, пожалуйста Пользовательское соглашение, а также как можно дольше оставайтесь на раздаче! Для того, чтобы скачать сам торрент-файл (который видит больше источников), а также для того, чтобы поблагодарить релизера, вам необходимо зарегистрироваться. Если регистрироваться лень - вы можете также попробовать скачать релиз по нашим партнерским ссылкам ниже.

[underverse.su].t58642.torrent
Трекер: Зарегистрирован   [ 27.11.2015 18:41 ]  

Статус: T временная (by makkol at 27.11.2015 22:16)
Поблагодарили: пока никто не поблагодарил...
Тип торрента: публичный - доступные источники с открытых трекеров: 
Размер: 5,37 GB (занимает 1,23 DVDR, для записи нужно 2 болванки DVDR/RW)
 
 
Похожие темы
Форум Тема Автор Торрент Отв. Посл. сооб.
T Зарубежные сериалы Герои: Возрождение / Heroes Reborn [01x01-09 из 13] (Лариса Кондрацки, Грег Биман, Мэтт Шекман ) [2015 г., фантастика, фэнтези, триллер, драма , WEB-DLRip] MVO (LostFilm) [КПК] ultarasbarcelona
3 | 0

0 | 605

0

16.11.2015 10:09



Последний раз редактировалось: older (27.11.2015 18:41), всего редактировалось 5 раз(а)

older Пол:Муж

13-Окт-2015 03:30

13.10.15. Раздача обновлена!
Добавлены 2-4 серии.
Перекачайте торрент файл!

older Пол:Муж

18-Окт-2015 09:25

18.10.15. Раздача обновлена!
Добавлена 5 серия.
Перекачайте торрент файл!

older Пол:Муж

02-Ноя-2015 08:43

02.11.15. Раздача обновлена!
Добавлены 6-7 серии.
Перекачайте торрент файл!

older Пол:Муж

07-Ноя-2015 06:02

07.11.15. Раздача обновлена!
Добавлена 8 серия.
Перекачайте торрент файл!

older Пол:Муж

16-Ноя-2015 05:41

16.11.15. Раздача обновлена!
Добавлена 9 серия.
Перекачайте торрент файл!

older Пол:Муж

27-Ноя-2015 18:42

27.11.15. Раздача обновлена!
Добавлена 10 серия.
Перекачайте торрент файл!

Яндекс.Метрика powered by Sphinx


В Н И М А Н И Е
Сайт не распространяет и не хранит электронные версии произведений, а лишь бесплатно и без коммерческой выгоды (не требуя взамен платы,
SMS и т.д.) предоставляет доступ к создаваемому пользователями каталогу ссылок на торрент-файлы, которые содержат только списки хеш-сумм.
Убедительная просьба с жалобами обращаться напрямую к пользователю, разместившему торрент файл.

Вверх