Loading...
Error

Случайная вакансия / The Casual Vacancy / Сезон 1 (1-3 серии из 3) (Джонни Кэмпбелл) [2015 г., драма, комедия, WEB-DLRip] MVO

Статистика раздачи
Размер:  2,08 GB   |    Зарегистрирован:  1 год 2 месяца   |    Скачан:  12 раз

Полного источника не было: 2 месяца 19 дней

Сидов:  0  |  0 KB/s  ]   Личеров:  0  |  0 KB/s  ]

* - сиды/пиры с внешних источников

   
 
Автор Сообщение

older Пол:Муж

26-Сен-2015 13:38

Случайная вакансия / The Casual Vacancy / Сезон 1


Год выпуска: 2015
Жанр: драма, комедия
Страна: США
Режиссер: Джонни Кэмпбелл
В ролях: Симона Браун, Мишель Остин, Хетти Бэйнес, Эмили Беван, Сайлас Карсон, Лолита Чакрабарти, Ria Choony, Мари Критчли, Моника Долан, Энтони Фаррелли
Сюжет фильма:
В Пэгфорде на сорок пятом году жизни скоропостижно скончался член местного совета Барри Фейрбразер. Это событие повергло горожан в шок. В провинциальном английском городке с мощёной рыночной площадью и древним монастырем, казалось бы, царит идиллия, но так ли это на самом деле? Что скрывается за красивыми английскими фасадами? На самом деле тихий городок уже давно находится в состоянии войны. Богатые конфликтуют с бедными, подростки — с родителями, жёны — с мужьями, учителя — с учениками… Пэгфорд не такой, каким кажется на первый взгляд. И освободившееся кресло в местном совете только обостряет все эти конфликты, что грозит привести к такой войне, которой ещё не видел маленький городок. Кто сумеет победить на выборах со страстями, двуличием и неожиданными разоблачениями?

Качество видео: WEB-DLRip

Продолжительность: ~ 00:57:00
Формат: AVI
Видео: XviD, 720x304, 1499 kbps
Аудио: русский, многоголосый закадровый [профессиональный], AC3 2.0, 192 kbps - Gears Media

Код:

Общее
Полное имя                               : \The Casual Vacancy S01 [Gears Media]\The_Casual_Vacancy.1x01.HDTVRip.Gears Media.avi
Формат                                   : AVI
Формат/Информация                        : Audio Video Interleave
Размер файла                             : 697 Мбайт
Продолжительность                        : 57 м.
Общий поток                              : 1700 Кбит/сек
Программа кодирования                    : VirtualDubMod 1.5.10.3 | www.virtualdub-fr.org || (build 2550/release)
Библиотека кодирования                   : VirtualDubMod build 2550/release

Видео
Идентификатор                            : 0
Формат                                   : MPEG-4 Visual
Профиль формата                          : Advanced Simple@L5
Параметр BVOP формата                    : 2
Параметр QPel формата                    : Нет
Параметр GMC формата                     : Без точки перехода
Параметр матрицы формата                 : Default (MPEG)
Идентификатор кодека                     : XVID
Идентификатор кодека/Подсказка           : XviD
Продолжительность                        : 57 м.
Битрейт                                  : 1499 Кбит/сек
Ширина                                   : 720 пикселей
Высота                                   : 304 пикселя
Соотношение сторон                       : 2,35:1
Частота кадров                           : 25,000 кадров/сек
Цветовое пространство                    : YUV
Субдискретизация насыщенности            : 4:2:0
Битовая глубина                          : 8 бит
Тип развёртки                            : Прогрессивная
Метод сжатия                             : С потерями
Бит/(Пиксели*Кадры)                      : 0.274
Размер потока                            : 614 Мбайт (88%)
Библиотека кодирования                   : XviD 1.2.1 (UTC 2008-12-04)

Аудио
Идентификатор                            : 1
Формат                                   : AC-3
Формат/Информация                        : Audio Coding 3
Расширение режима                        : CM (complete main)
Параметр Endianness формата              : Big
Идентификатор кодека                     : 2000
Продолжительность                        : 57 м.
Вид битрейта                             : Постоянный
Битрейт                                  : 192 Кбит/сек
Каналы                                   : 2 канала
Расположение каналов                     : Front: L R
Частота                                  : 48,0 КГц
Битовая глубина                          : 16 бит
Метод сжатия                             : С потерями
Размер потока                            : 78,7 Мбайт (11%)
Выравнивание                             : Разделение по промежуткам
Продолжительность промежутка             : 40  мс. (1,00 видеокадр)
Время предзагрузки промежутка            : 500  мс.

Релиз группы:

picpicpicpicpic
Для увеличения картинки щелкните мышкой по превью

Этот торрент недоступен для скачивания без регистрации, однако доступен по публичной magnet-ссылке (источники с публичных трекеров). Перед использованием ссылки прочтите, пожалуйста Пользовательское соглашение, а также как можно дольше оставайтесь на раздаче! Для того, чтобы скачать сам торрент-файл (который видит больше источников), а также для того, чтобы поблагодарить релизера, вам необходимо зарегистрироваться. Если регистрироваться лень - вы можете также попробовать скачать релиз по нашим партнерским ссылкам ниже.

[underverse.su].t58639.torrent
Трекер: Зарегистрирован   [ 26.09.2015 13:38 ]  

Статус: проверено (by makkol at 26.09.2015 22:08)
Поблагодарили: пока никто не поблагодарил...
Тип торрента: публичный - доступные источники с открытых трекеров: 
Размер: 2,08 GB (занимает 0,47 DVDR, для записи нужно 1 болванка DVDR/RW)
 
 
Похожие темы
Форум Тема Автор Торрент Отв. Посл. сооб.
Архив Случайная запись (Бата Недич) [2009 г., боевик, приключения, DVD-5] andrej-ku
0 | 0

3 | 1027

0

12.11.2010 23:48


Яндекс.Метрика powered by Sphinx


В Н И М А Н И Е
Сайт не распространяет и не хранит электронные версии произведений, а лишь бесплатно и без коммерческой выгоды (не требуя взамен платы,
SMS и т.д.) предоставляет доступ к создаваемому пользователями каталогу ссылок на торрент-файлы, которые содержат только списки хеш-сумм.
Убедительная просьба с жалобами обращаться напрямую к пользователю, разместившему торрент файл.

Вверх