Loading...
Error

Форс-мажоры / Костюмы в законе / Suits / Сезон 5 (1-10 серии из 16) (Кевин Брэй, Антон Кроппер, Майкл Смит) [2015 г., драма, комедия, WEB-DLRip] DVO + Original

Статистика раздачи
Размер:  5,32 GB   |    Зарегистрирован:  1 год 2 месяца   |    Скачан:  10 раз

Полного источника не было: 1 месяц 20 дней

Сидов:  0  |  0 KB/s  ]   Личеров:  0  |  0 KB/s  ]

* - сиды/пиры с внешних источников

   
 
Автор Сообщение

older Пол:Муж

26-Сен-2015 07:50

Форс-мажоры / Костюмы в законе / Suits / Сезон 5 (1-10 серии из 16)


Год выпуска: 2015
Жанр: драма, комедия
Страна: США
Режиссер: Кевин Брэй, Антон Кроппер, Майкл Смит
В ролях: Патрик Дж. Адамс, Гэбриел Махт, Меган Маркл, Джина Торрес, Рик Хоффман
Сюжет фильма:
В центре сюжета замечательный, но немотивированный молодой человек, так и не закончивший учебу в колледже. У него есть все необходимые качества, чтобы стать хорошим адвокатом, кроме диплома. Но благодаря знаниям законов улицы и напористым, не всегда честным действиям его нанимает влиятельная юридическая фирма из Манхэттена.

Качество видео: WEB-DLRip

Продолжительность: ~ 00:42:00
Формат: AVI
Видео: XviD, 720х400, 1543 kbps
Аудио #1: русский, двухголосый закадровый [профессиональный], MP3 2.0, 128 kbps
Аудио #2: английский, оригинал, MP3 2.0, 128 kbps

Код:

Общее
Полное имя                               : \Форс-мажоры (Suits) (Season V, 2015, WEB-DLRip) [NewStudio]\Suits.s05e01.WEBDLRip.NewStudio.avi
Формат                                   : AVI
Формат/Информация                        : Audio Video Interleave
Размер файла                             : 545 Мбайт
Продолжительность                        : 42 м.
Общий поток                              : 1812 Кбит/сек
Программа кодирования                    : VirtualDubMod 1.5.10.2 (build 2540/release)
Библиотека кодирования                   : VirtualDubMod build 2540/release

Видео
Идентификатор                            : 0
Формат                                   : MPEG-4 Visual
Профиль формата                          : Advanced Simple@L5
Параметр BVOP формата                    : 2
Параметр QPel формата                    : Нет
Параметр GMC формата                     : Без точки перехода
Параметр матрицы формата                 : Default (MPEG)
Идентификатор кодека                     : XVID
Идентификатор кодека/Подсказка           : XviD
Продолжительность                        : 42 м.
Битрейт                                  : 1543 Кбит/сек
Ширина                                   : 720 пикселей
Высота                                   : 400 пикселей
Соотношение сторон                       : 16:9
Частота кадров                           : 23,976 кадра/сек
Цветовое пространство                    : YUV
Субдискретизация насыщенности            : 4:2:0
Битовая глубина                          : 8 бит
Тип развёртки                            : Прогрессивная
Метод сжатия                             : С потерями
Бит/(Пиксели*Кадры)                      : 0.223
Размер потока                            : 464 Мбайт (85%)
Библиотека кодирования                   : XviD 73

Аудио #1
Идентификатор                            : 1
Формат                                   : MPEG Audio
Версия формата                           : Version 1
Профиль формата                          : Layer 3
Режим                                    : Joint stereo
Расширение режима                        : MS Stereo
Идентификатор кодека                     : 55
Идентификатор кодека/Подсказка           : MP3
Продолжительность                        : 42 м.
Вид битрейта                             : Постоянный
Битрейт                                  : 128 Кбит/сек
Каналы                                   : 2 канала
Частота                                  : 48,0 КГц
Метод сжатия                             : С потерями
Размер потока                            : 38,5 Мбайт (7%)
Выравнивание                             : Соединение по промежуткам
Продолжительность промежутка             : 42  мс. (1,00 видеокадр)
Время предзагрузки промежутка            : 504  мс.

Аудио #2
Идентификатор                            : 2
Формат                                   : MPEG Audio
Версия формата                           : Version 1
Профиль формата                          : Layer 3
Режим                                    : Joint stereo
Расширение режима                        : MS Stereo
Идентификатор кодека                     : 55
Идентификатор кодека/Подсказка           : MP3
Продолжительность                        : 42 м.
Вид битрейта                             : Постоянный
Битрейт                                  : 128 Кбит/сек
Каналы                                   : 2 канала
Частота                                  : 48,0 КГц
Метод сжатия                             : С потерями
Размер потока                            : 38,5 Мбайт (7%)
Выравнивание                             : Соединение по промежуткам
Продолжительность промежутка             : 42  мс. (1,00 видеокадр)
Время предзагрузки промежутка            : 504  мс.
Библиотека кодирования                   : LAME3.99.5ЄЄЄЄЄЄЄЄЄЄ

Внимание! Раздача ведётся путём добавления новых серий.
При каждом добавлении создаётся новый торрент. Чтобы начать докачку новой серии, пользователям необходимо сделать следующее:
1. Остановить скачивание,
2. Удалить старый торрент у себя из клиента (старые серии удалять не надо),
3. Скачать новый торрент и запустить его у себя в клиенте вместо старого, при этом указать клиенту путь в старую папку куда и должно происходить скачивание новых серий.
Ваш клиент при этом должен произвести хеширование (проверку) старой папки (если не производит сам - помогите ему сделать это), и будет докачивать только те серии которых у вас ещё нет. Старые серии при этом не удаляются, а продолжают раздаваться!
Если вы уже удалили старые серии, то предотвратить повторную закачку старых серий можно, отжав галочку в соответствующих местах при запуске нового торрента.
Релиз группы:

picpicpicpicpic
Для увеличения картинки щелкните мышкой по превью

Этот торрент недоступен для скачивания без регистрации, однако доступен по публичной magnet-ссылке (источники с публичных трекеров). Перед использованием ссылки прочтите, пожалуйста Пользовательское соглашение, а также как можно дольше оставайтесь на раздаче! Для того, чтобы скачать сам торрент-файл (который видит больше источников), а также для того, чтобы поблагодарить релизера, вам необходимо зарегистрироваться. Если регистрироваться лень - вы можете также попробовать скачать релиз по нашим партнерским ссылкам ниже.

[underverse.su].t58628.torrent
Трекер: Зарегистрирован   [ 26.09.2015 07:50 ]  

Статус: T временная (by makkol at 26.09.2015 09:46)
Поблагодарили: пока никто не поблагодарил...
Тип торрента: публичный - доступные источники с открытых трекеров: 
Размер: 5,32 GB (занимает 1,22 DVDR, для записи нужно 2 болванки DVDR/RW)
 
 
Похожие темы
Форум Тема Автор Торрент Отв. Посл. сооб.
Зарубежное кино [DVDRip, Low-Res HDRip, и т.д.] Форс-мажор / Turist (Рубен Эстлунд / Ruben Ostlund) [2014 г., драма, комедия, BDRip] 90ytr90
1 | 0

0 | 474

24

01.02.2015 15:49

T Зарубежное кино [DVDRip, Low-Res HDRip, и т.д.] Форс-мажор / Force-Majeure / Turist (Рубен Эстлунд) [2014 г., драма, комедия, HDRip] MVO makkol
0 | 0

0 | 426

39

12.11.2015 22:45

Зарубежные сериалы Форс-мажоры / Костюмы в законе / Suits / Сезон 4 (1-16 серии из 16) (Кевин Брэй, Антон Кроппер, Майкл Смит) [2014 г., драма, комедия, WEB-DLRip] DVO + Original older
150 | 35

0 | 603

7

26.09.2015 07:36

T Зарубежное кино [HDDVDRip / BDRip / WEB-DL / HDTV 1080/720р] Форс-мажор / Force-Majeure / Turist (Рубен Эстлунд) [2014 г., драма, комедия, BDRip 1080p] MVO + Original makkol
2 | 0

0 | 666

28

12.11.2015 22:55

Зарубежные сериалы [BD / Remux / BDRip / WEB-DL / HDTV 1080/720р] Форс-мажоры / Костюмы в законе / Suits / Сезон: 3 / Серии: 1-16 (16) (Кевин Брэй, Джон Скотт, Майкл Смит) [2013, Драма, WEB-DL 720p] MVO (To4ka) + Original + Subs (Rus, To4ka Translate) + Subs (Eng) uzi2009
9 | 2

0 | 832

9

13.08.2014 05:55


Яндекс.Метрика powered by Sphinx


В Н И М А Н И Е
Сайт не распространяет и не хранит электронные версии произведений, а лишь бесплатно и без коммерческой выгоды (не требуя взамен платы,
SMS и т.д.) предоставляет доступ к создаваемому пользователями каталогу ссылок на торрент-файлы, которые содержат только списки хеш-сумм.
Убедительная просьба с жалобами обращаться напрямую к пользователю, разместившему торрент файл.

Вверх