Loading...
Error

Карточный домик / House of Cards / Сезон 3 (1-13 серии из 13) (Джеймс Фоули, Джон Дэвид Коулз, Карл Франклин) [2015 г., драма, WEBRip] MVO (Первый канал)

Статистика раздачи
Размер:  10,42 GB   |    Зарегистрирован:  1 год 2 месяца   |    Скачан:  22 раза

Полного источника не было: 4 часа

Сидов:  0  |  0 KB/s  ]   Личеров:  0  |  0 KB/s  ]

* - сиды/пиры с внешних источников

   
 
Автор Сообщение

older Пол:Муж

26-Сен-2015 07:05

Карточный домик / House of Cards / Сезон 3


Год выпуска: 2015
Жанр: драма
Страна: США
Режиссер: Джеймс Фоули, Джон Дэвид Коулз, Карл Франклин
В ролях: Кевин Спейси, Робин Райт, Кейт Мара, Кори Столл, Майкл Келли, Сакина Джэффри, Ларри Пайн, Джейн Эткинсон, Кевин Килнер, Жаклин Джонс, Рюэл Пендлтон, Гилберт Сото, Кристен Коннолли, Сандрин Холт, Махершалалхашбаз Али, Майкл Гилл, Рэйчел Броснахэн, Бен Дэниелс, Тони Сайпресс, Констанс Зиммер
Сюжет фильма:
Амбициозный конгрессмен от Демократической партии Фрэнк Андервуд в обмен на обещание сделать его госсекретарём помогает Гаррету Уокеру стать президентом США. Однако после выборов глава администрации президента Линда Васкез сообщает Андервуду, что он не получит должность. Взбешенные предательством Фрэнк и его жена готовы пойти на всё, чтобы отомстить новоиспечённому президенту.

Качество видео: WEBRip

Продолжительность: ~ 00:58:00
Формат: AVI
Видео: XviD, 704x352, 1781 kbps
Аудио: русский, многоголосый закадровый [профессиональный], AC3 2.0, 256 kbps - Первый канал

Код:

Общее
Полное имя                               : \Карточный домик_3_сезон_[scarabey.org]\House.of.Cards.s03e01_[scarabey.org].avi
Формат                                   : AVI
Формат/Информация                        : Audio Video Interleave
Размер файла                             : 859 Мбайт
Продолжительность                        : 58 м.
Общий поток                              : 2046 Кбит/сек
Программа кодирования                    : VirtualDubMod 1.5.10.3 | www.virtualdub-fr.org || (build 2550/release)
Библиотека кодирования                   : VirtualDubMod build 2550/release

Видео
Идентификатор                            : 0
Формат                                   : MPEG-4 Visual
Профиль формата                          : Advanced Simple@L5
Параметр BVOP формата                    : 1
Параметр QPel формата                    : Нет
Параметр GMC формата                     : Без точки перехода
Параметр матрицы формата                 : Выборочная
Идентификатор кодека                     : XVID
Идентификатор кодека/Подсказка           : XviD
Продолжительность                        : 58 м.
Битрейт                                  : 1781 Кбит/сек
Ширина                                   : 704 пикселя
Высота                                   : 352 пикселя
Соотношение сторон                       : 2,000
Частота кадров                           : 23,976 кадра/сек
Цветовое пространство                    : YUV
Субдискретизация насыщенности            : 4:2:0
Битовая глубина                          : 8 бит
Тип развёртки                            : Прогрессивная
Метод сжатия                             : С потерями
Бит/(Пиксели*Кадры)                      : 0.300
Размер потока                            : 747 Мбайт (87%)
Библиотека кодирования                   : XviD 73

Аудио
Идентификатор                            : 1
Формат                                   : AC-3
Формат/Информация                        : Audio Coding 3
Расширение режима                        : CM (complete main)
Параметр Endianness формата              : Big
Идентификатор кодека                     : 2000
Продолжительность                        : 58 м.
Вид битрейта                             : Постоянный
Битрейт                                  : 256 Кбит/сек
Каналы                                   : 2 канала
Расположение каналов                     : Front: L R
Частота                                  : 48,0 КГц
Битовая глубина                          : 16 бит
Метод сжатия                             : С потерями
Размер потока                            : 107 Мбайт (13%)
Выравнивание                             : Разделение по промежуткам
Продолжительность промежутка             : 42  мс. (1,00 видеокадр)
Время предзагрузки промежутка            : 500  мс.

Релиз группы:

picpicpicpicpic
Для увеличения картинки щелкните мышкой по превью

Этот торрент недоступен для скачивания без регистрации, однако доступен по публичной magnet-ссылке (источники с публичных трекеров). Перед использованием ссылки прочтите, пожалуйста Пользовательское соглашение, а также как можно дольше оставайтесь на раздаче! Для того, чтобы скачать сам торрент-файл (который видит больше источников), а также для того, чтобы поблагодарить релизера, вам необходимо зарегистрироваться. Если регистрироваться лень - вы можете также попробовать скачать релиз по нашим партнерским ссылкам ниже.

[underverse.su].t58625.torrent
Трекер: Зарегистрирован   [ 26.09.2015 07:05 ]  

Статус: проверено (by makkol at 26.09.2015 09:44)
Поблагодарили: 1 человек
Тип торрента: публичный - доступные источники с открытых трекеров: 
Размер: 10,42 GB (занимает 2,38 DVDR, для записи нужно 3 болванки DVDR/RW)
 
 
Похожие темы
Форум Тема Автор Торрент Отв. Посл. сооб.
Зарубежные сериалы Карточный домик / House of Cards [01х01-13] (Джеймс Фоули, Дэвид Финчер, Карл Франклин) [2013 г., Драма, WEBRip] MVO 90ytr90
0 | 0

2 | 2560

80

29.03.2014 14:33

Зарубежные сериалы Карточный Домик / House of Cards [сезон 2 / серии 01-13 (13)] (Джеймс Фоули / James Foley, Карл Франклин / Carl Franklin, Аллен Култер / Allen Coulter) [2014 г., драма, WEBRip] MVO (Первый канал) 90ytr90
19 | 6

0 | 2244

96

29.03.2014 14:31

Зарубежные сериалы [BD / Remux / BDRip / WEB-DL / HDTV 1080/720р] Карточный домик / House of Cards / Сезон 1 / Серии 1-13 (13) ( Джеймс Фоули, Дэвид Финчер, Карл Франклин) [2013 г., Драма, WEBDLRip 720p] MVO + Original Чертёнок
2 | 0

3 | 1766

62

25.05.2013 04:40


Яндекс.Метрика powered by Sphinx


В Н И М А Н И Е
Сайт не распространяет и не хранит электронные версии произведений, а лишь бесплатно и без коммерческой выгоды (не требуя взамен платы,
SMS и т.д.) предоставляет доступ к создаваемому пользователями каталогу ссылок на торрент-файлы, которые содержат только списки хеш-сумм.
Убедительная просьба с жалобами обращаться напрямую к пользователю, разместившему торрент файл.

Вверх