Loading...
Error

Лила и Ева / Lila & Eve (Чарльз Стоун) [2015 г., триллер, драма, HDRip] MVO + Original

Статистика раздачи
Размер:  1,46 GB   |    Зарегистрирован:  1 год 2 месяца   |    Скачан:  22 раза

Полного источника не было: 3 месяца 14 дней

Сидов:  0  |  0 KB/s  ]   Личеров:  0  |  0 KB/s  ]

* - сиды/пиры с внешних источников

   
 
Автор Сообщение

makkol Пол:Муж

25-Сен-2015 23:16

Лила и Ева / Lila & Eve


Год выпуска: 2015
Жанр: триллер, драма
Производство: США [A+E Studios, ChickFlick Productions, JuVee Productions, Lifetime Films]
Режиссер: Чарльз Стоун
В ролях: Дженнифер Лопез, Виола Дэвис, Ши Уигхэм, Амл Амин, Андре Ройо, Крис Чок, Джулиус Теннон, Миколь Уайт, Йолонда Росс, Уилл Бриттейн
Сюжет фильма:
На свете нет ничего крепче, чем узы, которые связывают мать и ребёнка. Особенно ярко они проявляются в детстве, но постепенно ослабевают. Иногда эти узы приносят мир и добро, но бывают случаи, когда они заставляют мстить и убивать. Это и произошло с двумя молодыми матерьми. Они дружили очень давно. Вместе вышли замуж и родили детей. Но произошло несчастье, и дети погибли. Поначалу обезумевшие от горя женщины обращались в полицию и пытались наказать убийцу по закону. Но органы бездействовали, и хранители закона отмахивались от бедных женщин. Тогда матери решили взять ситуацию в свои хрупкие руки. Они вышли на тропу войны и готовы на все, лишь бы наказать виновного. Получится ли это у них? Смогут ли они уйти от наказания?

  • Мировая премьера: 30 января 2015


Качество видео: HDRip

Продолжительность: 01:33:57
Формат: AVI
Видео: XviD, 720x384 (1.85:1), 23.976 fps, 1576 kbps
Аудио #1: русский, любительский многоголосый закадровый (Victory-Films), AC3 2.0, 48 kHz, 192 kbps
Аудио #2: английский, оригинал, AC3 5.1, 48 kHz, 448 kbps

Код:

Общее
Полное имя                               : Lula.I.Eva.2015.avi
Формат                                   : AVI
Формат/Информация                        : Audio Video Interleave
Размер файла                             : 1,46 Гбайт
Продолжительность                        : 1 ч. 33 м.
Общий поток                              : 2230 Кбит/сек
Программа кодирования                    : VirtualDubMod 1.5.10.3 | (build 2550/release)
Библиотека кодирования                   : VirtualDubMod build 2550/release

Видео
Идентификатор                            : 0
Формат                                   : MPEG-4 Visual
Профиль формата                          : Advanced Simple@L5
Параметр BVOP формата                    : 1
Параметр QPel формата                    : Нет
Параметр GMC формата                     : Без точки перехода
Параметр матрицы формата                 : Default (H.263)
Идентификатор кодека                     : XVID
Идентификатор кодека/Подсказка           : XviD
Продолжительность                        : 1 ч. 33 м.
Битрейт                                  : 1576 Кбит/сек
Ширина                                   : 720 пикселей
Высота                                   : 384 пикселя
Соотношение сторон                       : 1,85:1
Частота кадров                           : 23,976 кадра/сек
Цветовое пространство                    : YUV
Субдискретизация насыщенности            : 4:2:0
Битовая глубина                          : 8 бит
Тип развёртки                            : Прогрессивная
Метод сжатия                             : С потерями
Бит/(Пиксели*Кадры)                      : 0.238
Размер потока                            : 1,03 Гбайт (71%)
Библиотека кодирования                   : XviD 1.2.1 (UTC 2008-12-04)

Аудио #1
Идентификатор                            : 1
Формат                                   : AC-3
Формат/Информация                        : Audio Coding 3
Расширение режима                        : CM (complete main)
Параметр Endianness формата              : Big
Идентификатор кодека                     : 2000
Продолжительность                        : 1 ч. 33 м.
Вид битрейта                             : Постоянный
Битрейт                                  : 192 Кбит/сек
Каналы                                   : 2 канала
Расположение каналов                     : Front: L R
Частота                                  : 48,0 КГц
Метод сжатия                             : С потерями
Размер потока                            : 129 Мбайт (9%)
Выравнивание                             : Соединение по промежуткам
Продолжительность промежутка             : 42  мс. (1,00 видеокадр)
Время предзагрузки промежутка            : 512  мс.

Аудио #2
Идентификатор                            : 2
Формат                                   : AC-3
Формат/Информация                        : Audio Coding 3
Расширение режима                        : CM (complete main)
Параметр Endianness формата              : Big
Идентификатор кодека                     : 2000
Продолжительность                        : 1 ч. 33 м.
Вид битрейта                             : Постоянный
Битрейт                                  : 448 Кбит/сек
Каналы                                   : 6 каналов
Расположение каналов                     : Front: L C R, Side: L R, LFE
Частота                                  : 48,0 КГц
Метод сжатия                             : С потерями
Размер потока                            : 301 Мбайт (20%)
Выравнивание                             : Разделение по промежуткам
Продолжительность промежутка             : 42  мс. (1,00 видеокадр)
Время предзагрузки промежутка            : 500  мс.
Перевод: zahra, lext_2009, Trident
Озвучивание: Victory-Films - Андрей Питерский, Камила Юнусова, Валентина Чеботкова
pic pic pic picpic
Для увеличения картинки щелкните мышкой по превью

Этот торрент недоступен для скачивания без регистрации, однако доступен по публичной magnet-ссылке (источники с публичных трекеров). Перед использованием ссылки прочтите, пожалуйста Пользовательское соглашение, а также как можно дольше оставайтесь на раздаче! Для того, чтобы скачать сам торрент-файл (который видит больше источников), а также для того, чтобы поблагодарить релизера, вам необходимо зарегистрироваться. Если регистрироваться лень - вы можете также попробовать скачать релиз по нашим партнерским ссылкам ниже.

[underverse.su].t58621.torrent
Трекер: Зарегистрирован   [ 25.09.2015 23:16 ]  

Статус: проверено (by makkol at 26.09.2015 11:41)
Поблагодарили: 1 человек
Тип торрента: публичный - доступные источники с открытых трекеров: 
Размер: 1,46 GB (занимает 0,33 DVDR, для записи нужно 1 болванка DVDR/RW)
 
 
Похожие темы
Форум Тема Автор Торрент Отв. Посл. сооб.
Зарубежное кино [HDDVDRip / BDRip / WEB-DL / HDTV 1080/720р] Лила и Ева / Lila & Eve (Чарльз Стоун) [2015 г., триллер, драма, BDRip 720p] MVO + Original makkol
13 | 0

0 | 851

29

25.09.2015 23:28


Яндекс.Метрика powered by Sphinx


В Н И М А Н И Е
Сайт не распространяет и не хранит электронные версии произведений, а лишь бесплатно и без коммерческой выгоды (не требуя взамен платы,
SMS и т.д.) предоставляет доступ к создаваемому пользователями каталогу ссылок на торрент-файлы, которые содержат только списки хеш-сумм.
Убедительная просьба с жалобами обращаться напрямую к пользователю, разместившему торрент файл.

Вверх