Loading...
Error

Игрок / The Player / Сезон 1 (1-9 серии из 9) (Бхарат Наллури) [2015 г., триллер, драма, WEB-DLRip] MVO + Original

Статистика раздачи
Размер:  4,83 GB   |    Зарегистрирован:  1 год   |    Скачан:  18 раз

Полного источника не было: 1 месяц 26 дней

Сидов:  0  |  0 KB/s  ]   Личеров:  0  |  0 KB/s  ]

* - сиды/пиры с внешних источников

   
 
Автор Сообщение

older Пол:Муж

25-Сен-2015 19:47

Игрок / The Player / Сезон 1


Год выпуска: 2015
Жанр: триллер, драма
Страна: США
Режиссер: Бхарат Наллури
В ролях: Уэсли Снайпс, Филип Уинчестер, Чарити Уэйкфилд, Дэймон Гаптон, Jade Bender, Тони Френч, Dion Mucciacito, Пануват Энтони Нанакорнпаном, Фил Тайлер, Нитя Видьясагар
Сюжет фильма:
В центре повествования находится опытный спецагент, который на протяжении долгого времени работал в престижном разведывательном ведомстве. Беспрерывные задания, переполненные приключениями и опасностями, сделали из него настоящего мастера этого дела. Раз за разом раскрывая самые запутанные преступления, даже при отсутствии малейших зацепок, он смог стать одним из лучших и заработать себе впечатляющую репутацию. Однако, человек не всегда способен совладать с историей своей жизни и держать её в определённом русле. Главного героя вынудили расстаться со своим любимым делом и покончить с прошлой карьерой раз и навсегда. Череда ужасающих событий переворачивает его привычный мир с ног на голову и отнимает у него самое дорогое. Потеряв жену, бывший разведчик находит себе новое призвание, ещё более опасное. Теперь он становится экспертом по вопросам безопасности и заводит знакомства с влиятельными людьми. По мере выполнения своей работы, он жаждет раскрыть преступление, которое разрушило его жизнь...

Качество видео: WEB-DLRip

Продолжительность: ~ 00:43:00
Формат: AVI
Видео: XviD, 720х400, 1506 kbps
Аудио #1: русский, многоголосый закадровый [профессиональный], MP3 2.0, 128 kbps
Аудио #2: английский, оригинал, MP3 2.0, 128 kbps

Код:

Общее
Полное имя                               : \Игрок (сезон 1) The Player (2015) WEB-DLRip - NewStudio\The.Player.s01e01.WEBDLRip.*другой трекер*.avi
Формат                                   : AVI
Формат/Информация                        : Audio Video Interleave
Размер файла                             : 550 Мбайт
Продолжительность                        : 43 м.
Общий поток                              : 1775 Кбит/сек
Программа кодирования                    : VirtualDubMod 1.5.10.2 (build 2540/release)
Библиотека кодирования                   : VirtualDubMod build 2540/release

Видео
Идентификатор                            : 0
Формат                                   : MPEG-4 Visual
Профиль формата                          : Advanced Simple@L5
Параметр BVOP формата                    : 2
Параметр QPel формата                    : Нет
Параметр GMC формата                     : Без точки перехода
Параметр матрицы формата                 : Default (MPEG)
Идентификатор кодека                     : XVID
Идентификатор кодека/Подсказка           : XviD
Продолжительность                        : 43 м.
Битрейт                                  : 1506 Кбит/сек
Ширина                                   : 720 пикселей
Высота                                   : 400 пикселей
Соотношение сторон                       : 16:9
Частота кадров                           : 23,976 кадра/сек
Цветовое пространство                    : YUV
Субдискретизация насыщенности            : 4:2:0
Битовая глубина                          : 8 бит
Тип развёртки                            : Прогрессивная
Метод сжатия                             : С потерями
Бит/(Пиксели*Кадры)                      : 0.218
Размер потока                            : 466 Мбайт (85%)
Библиотека кодирования                   : XviD 73

Аудио #1
Идентификатор                            : 1
Формат                                   : MPEG Audio
Версия формата                           : Version 1
Профиль формата                          : Layer 3
Режим                                    : Joint stereo
Расширение режима                        : MS Stereo
Идентификатор кодека                     : 55
Идентификатор кодека/Подсказка           : MP3
Продолжительность                        : 43 м.
Вид битрейта                             : Постоянный
Битрейт                                  : 128 Кбит/сек
Каналы                                   : 2 канала
Частота                                  : 48,0 КГц
Метод сжатия                             : С потерями
Размер потока                            : 39,6 Мбайт (7%)
Выравнивание                             : Соединение по промежуткам
Продолжительность промежутка             : 42  мс. (1,00 видеокадр)
Время предзагрузки промежутка            : 504  мс.

Аудио #2
Идентификатор                            : 2
Формат                                   : MPEG Audio
Версия формата                           : Version 1
Профиль формата                          : Layer 3
Режим                                    : Joint stereo
Идентификатор кодека                     : 55
Идентификатор кодека/Подсказка           : MP3
Продолжительность                        : 43 м.
Вид битрейта                             : Постоянный
Битрейт                                  : 128 Кбит/сек
Каналы                                   : 2 канала
Частота                                  : 48,0 КГц
Метод сжатия                             : С потерями
Размер потока                            : 39,6 Мбайт (7%)
Выравнивание                             : Соединение по промежуткам
Продолжительность промежутка             : 42  мс. (1,00 видеокадр)
Время предзагрузки промежутка            : 504  мс.
Библиотека кодирования                   : LAME3.99r
Настройки программы                      : -m j -V 4 -q 2 -lowpass 17 -b 128

Внимание! Раздача ведётся путём добавления новых серий.
При каждом добавлении создаётся новый торрент. Чтобы начать докачку новой серии, пользователям необходимо сделать следующее:
1. Остановить скачивание,
2. Удалить старый торрент у себя из клиента (старые серии удалять не надо),
3. Скачать новый торрент и запустить его у себя в клиенте вместо старого, при этом указать клиенту путь в старую папку куда и должно происходить скачивание новых серий.
Ваш клиент при этом должен произвести хеширование (проверку) старой папки (если не производит сам - помогите ему сделать это), и будет докачивать только те серии которых у вас ещё нет. Старые серии при этом не удаляются, а продолжают раздаваться!
Если вы уже удалили старые серии, то предотвратить повторную закачку старых серий можно, отжав галочку в соответствующих местах при запуске нового торрента.
Релиз группы:

picpicpicpicpic
Для увеличения картинки щелкните мышкой по превью


27.11.15. Раздача обновлена!
Добавлена 9, последняя серия. Сезон представлен полностью.
Перекачайте торрент файл!

Этот торрент недоступен для скачивания без регистрации, однако доступен по публичной magnet-ссылке (источники с публичных трекеров). Перед использованием ссылки прочтите, пожалуйста Пользовательское соглашение, а также как можно дольше оставайтесь на раздаче! Для того, чтобы скачать сам торрент-файл (который видит больше источников), а также для того, чтобы поблагодарить релизера, вам необходимо зарегистрироваться. Если регистрироваться лень - вы можете также попробовать скачать релиз по нашим партнерским ссылкам ниже.

[underverse.su].t58617.torrent
Трекер: Зарегистрирован   [ 27.11.2015 18:39 ]  

Статус: проверено (by makkol at 27.11.2015 22:14)
Поблагодарили: 1 человек
Тип торрента: публичный - доступные источники с открытых трекеров: 
Размер: 4,83 GB (занимает 1,1 DVDR, для записи нужно 2 болванки DVDR/RW)
 
 
Похожие темы
Форум Тема Автор Торрент Отв. Посл. сооб.
Зарубежное кино [DVDRip, Low-Res HDRip, и т.д.] Игрок / The Gambler (Руперт Уайатт) [2014 г., триллер, драма, криминал, HDRip] Dub [лицензия] Паукан
4 | 0

0 | 642

66

31.03.2015 10:10

Зарубежное кино [DVDRip, Low-Res HDRip, и т.д.] Игрок / The Gambler (Руперт Уайатт) [2014 г., триллер, драма, криминал, HDRip] Dub [лицензия] + Original Паукан
1 | 0

0 | 502

39

31.03.2015 10:12

Зарубежное кино [HDDVDRip / BDRip / WEB-DL / HDTV 1080/720р] Игрок / The Gambler (Руперт Уайатт) [2014 г., триллер, драма, криминал, BDRip 1080p] Dub [лицензия] + Original Паукан
2 | 0

0 | 900

46

31.03.2015 10:16

Новинки кино [CAMRip, TS, DVDScr, WP, TC] Игрок / The Gambler (Руперт Уайатт / Rupert Wyatt) [2014 г., триллер, драма, криминал, DVDScr] DVO (RAIM&GUGU) 90ytr90
1 | 0

0 | 1434

149

16.01.2015 15:32



Последний раз редактировалось: older (27.11.2015 18:39), всего редактировалось 7 раз(а)

older Пол:Муж

13-Окт-2015 03:35

13.10.15. Раздача обновлена!
Добавлены 2-3 серии.
Перекачайте торрент файл!

older Пол:Муж

17-Окт-2015 04:27

17.10.15. Раздача обновлена!
Добавлена 4 серия.
Перекачайте торрент файл!

older Пол:Муж

16-Ноя-2015 05:37

16.11.15. Раздача обновлена!
Добавлена 7 серия.
Перекачайте торрент файл!

older Пол:Муж

19-Ноя-2015 05:11

19.11.15. Раздача обновлена!
Добавлена 8 серия.
Перекачайте торрент файл!

older Пол:Муж

27-Ноя-2015 18:39

27.11.15. Раздача обновлена!
Добавлена 9, последняя серия. Сезон представлен полностью.
Перекачайте торрент файл!

Яндекс.Метрика powered by Sphinx


В Н И М А Н И Е
Сайт не распространяет и не хранит электронные версии произведений, а лишь бесплатно и без коммерческой выгоды (не требуя взамен платы,
SMS и т.д.) предоставляет доступ к создаваемому пользователями каталогу ссылок на торрент-файлы, которые содержат только списки хеш-сумм.
Убедительная просьба с жалобами обращаться напрямую к пользователю, разместившему торрент файл.

Вверх