Loading...
Error

Самозванец / Impastor / Сезон 1 (1-10 серии из 10) (Дж. Кларк Мэтис, Роб Гринберг, Джей Карас) [2015 г., комедия, HDTVRip] VO

Статистика раздачи
Размер:  3,08 GB   |    Зарегистрирован:  1 год 2 месяца   |    Скачан:  10 раз

Полного источника не было: 2 месяца 27 дней

Сидов:  0  |  0 KB/s  ]   Личеров:  0  |  0 KB/s  ]

* - сиды/пиры с внешних источников

   
 
Автор Сообщение

older Пол:Муж

25-Сен-2015 15:25

Самозванец / Impastor / Сезон 1


Год выпуска: 2015
Жанр: комедия
Страна: США
Режиссер: Дж. Кларк Мэтис, Роб Гринберг, Джей Карас
В ролях: Майкл Розенбаум, Сара Рю, Мирсеа Монро, Давид Раш, Майк Козински, Линдси Горт
Сюжет фильма:
Оказавшись на мушке у вышибал кредиторов, которым он задолжал, великовозрастный пройдоха Бадди Доббс решает покончить собой, однако вместо этого в результате стечения обстоятельств оказывается в цветущем провинциальном городке, где его ждет весьма непростая работенка…

Качество видео: HDTVRip

Продолжительность: ~ 00:22:00
Формат: AVI
Видео: XviD, 720х400, 1996 kbps
Аудио: русский, одноголосый закадровый [любительский], MP3 2.0, 128 kbps - F-TRAIN
01. Бытие / Genesis
02. На третий день / On the Third Day
03. Шницель / Bird Of Pray
04. Не укради / Thou Shalt Not Steel
05. Бывшие / Ex Communication
06. Почитай отца и мать сво...его бойфренда / Honor Thy Boyfriend's Father And Mother
07. Тело вынуждает / The Body Of Kenny Compels You
08. Не кричи "Бинго"! / Bingo Tell It On the Mountain
09. Метания и стрелы / Flings & Arrows
10. Исход / Exodus

Код:

Общее
Полное имя                               : \Impastor - Season 1 (F-TRAIN)\impastor.s01e01.[f-train].rus.avi
Формат                                   : AVI
Формат/Информация                        : Audio Video Interleave
Размер файла                             : 348 Мбайт
Продолжительность                        : 22 м.
Общий поток                              : 2134 Кбит/сек
Программа кодирования                    : VirtualDubMod 1.5.10.2 (build 2540/release)
Библиотека кодирования                   : VirtualDubMod build 2540/release

Видео
Идентификатор                            : 0
Формат                                   : MPEG-4 Visual
Профиль формата                          : Advanced Simple@L5
Параметр BVOP формата                    : 1
Параметр QPel формата                    : Нет
Параметр GMC формата                     : Без точки перехода
Параметр матрицы формата                 : Default (MPEG)
Идентификатор кодека                     : XVID
Идентификатор кодека/Подсказка           : XviD
Продолжительность                        : 22 м.
Битрейт                                  : 1996 Кбит/сек
Ширина                                   : 720 пикселей
Высота                                   : 400 пикселей
Соотношение сторон                       : 16:9
Частота кадров                           : 23,976 кадра/сек
Цветовое пространство                    : YUV
Субдискретизация насыщенности            : 4:2:0
Битовая глубина                          : 8 бит
Тип развёртки                            : Прогрессивная
Метод сжатия                             : С потерями
Бит/(Пиксели*Кадры)                      : 0.289
Размер потока                            : 326 Мбайт (94%)
Библиотека кодирования                   : XviD 64

Аудио
Идентификатор                            : 1
Формат                                   : MPEG Audio
Версия формата                           : Version 1
Профиль формата                          : Layer 3
Режим                                    : Joint stereo
Расширение режима                        : MS Stereo
Идентификатор кодека                     : 55
Идентификатор кодека/Подсказка           : MP3
Продолжительность                        : 22 м.
Вид битрейта                             : Постоянный
Битрейт                                  : 128 Кбит/сек
Каналы                                   : 2 канала
Частота                                  : 48,0 КГц
Метод сжатия                             : С потерями
Размер потока                            : 20,9 Мбайт (6%)
Выравнивание                             : Разделение по промежуткам
Продолжительность промежутка             : 42  мс. (1,00 видеокадр)
Время предзагрузки промежутка            : 500  мс.

Внимание! Раздача ведётся путём добавления новых серий.
При каждом добавлении создаётся новый торрент. Чтобы начать докачку новой серии, пользователям необходимо сделать следующее:
1. Остановить скачивание,
2. Удалить старый торрент у себя из клиента (старые серии удалять не надо),
3. Скачать новый торрент и запустить его у себя в клиенте вместо старого, при этом указать клиенту путь в старую папку куда и должно происходить скачивание новых серий.
Ваш клиент при этом должен произвести хеширование (проверку) старой папки (если не производит сам - помогите ему сделать это), и будет докачивать только те серии которых у вас ещё нет. Старые серии при этом не удаляются, а продолжают раздаваться!
Если вы уже удалили старые серии, то предотвратить повторную закачку старых серий можно, отжав галочку в соответствующих местах при запуске нового торрента.
Релиз группы:

picpicpicpicpic
Для увеличения картинки щелкните мышкой по превью

Этот торрент недоступен для скачивания без регистрации, однако доступен по публичной magnet-ссылке (источники с публичных трекеров). Перед использованием ссылки прочтите, пожалуйста Пользовательское соглашение, а также как можно дольше оставайтесь на раздаче! Для того, чтобы скачать сам торрент-файл (который видит больше источников), а также для того, чтобы поблагодарить релизера, вам необходимо зарегистрироваться. Если регистрироваться лень - вы можете также попробовать скачать релиз по нашим партнерским ссылкам ниже.

[underverse.su].t58613.torrent
Трекер: Зарегистрирован   [ 25.09.2015 15:25 ]  

Статус: проверено (by makkol at 25.09.2015 22:02)
Поблагодарили: 1 человек
Тип торрента: публичный - доступные источники с открытых трекеров: 
Размер: 3,08 GB (занимает 0,7 DVDR, для записи нужно 1 болванка DVDR/RW)
 
 
Похожие темы
Форум Тема Автор Торрент Отв. Посл. сооб.
Зарубежное кино [DVDRip, Low-Res HDRip, и т.д.] Самозванец / The Imposter (Барт Лэйтон) [2012 г., документальный, биография, HDRip] VO [den904] RG NewCinema
1 | 0

0 | 897

23

16.03.2013 16:48

Другие фильмы Самозванец / The Imposter (Барт Лэйтон / Bart Layton) [2012 г., документальный, биография, BDRip] Dub 90ytr90
9 | 0

1 | 517

6

26.07.2013 16:08

Другие фильмы Самозванец / The Imposter (Барт Лэйтон / Bart Layton) [2012 г., документальный, биография, BDRip-AVC] Dub 90ytr90
7 | 1

1 | 439

8

26.07.2013 17:10

Другие фильмы Самозванец / The Imposter (Барт Лэйтон / Bart Layton) [2012 г., документальный, биография, BDRip 720p] Dub + VO + Original 90ytr90
2 | 1

1 | 462

2

26.07.2013 16:11

Документальное кино [DVD / HDDVD / BD / Remux] Самозванец / The Imposter (Барт Лэйтон / Bart Layton) [2012 г., документальный, биография, BDRip 1080p] Dub + VO + Original 90ytr90
4 | 0

1 | 678

4

26.07.2013 17:08


Яндекс.Метрика powered by Sphinx


В Н И М А Н И Е
Сайт не распространяет и не хранит электронные версии произведений, а лишь бесплатно и без коммерческой выгоды (не требуя взамен платы,
SMS и т.д.) предоставляет доступ к создаваемому пользователями каталогу ссылок на торрент-файлы, которые содержат только списки хеш-сумм.
Убедительная просьба с жалобами обращаться напрямую к пользователю, разместившему торрент файл.

Вверх