Loading...
Error

Королевы крика / Scream Queens / Сезон 1 (1-13 серии из 13) (Брэд Фалчук, Иэн Бреннан, Брэдли Букер) [2015 г., ужасы, комедия, WEB-DLRip] MVO + Original

Статистика раздачи
Размер:  6,86 GB   |    Зарегистрирован:  11 месяцев   |    Скачан:  4 раза

Полного источника не было: 1 месяц 2 дня

Сидов:  0  |  0 KB/s  ]   Личеров:  0  |  0 KB/s  ]

* - сиды/пиры с внешних источников

   
 
Автор Сообщение

older Пол:Муж

25-Сен-2015 14:25

Королевы крика / Scream Queens / Сезон 1


Год выпуска: 2015
Жанр: ужасы, комедия
Страна: США
Режиссер: Брэд Фалчук, Иэн Бреннан, Брэдли Букер
В ролях: Эмма Робертс, Джейми Ли Кёртис, Лиа Мишель, Эбигейл Бреслин, Скайлер Сэмюэлс, Ариана Гранде, Глен Пауэлл, Диего Бонета
Сюжет фильма:
Сюжет сериала сосредоточен вокруг университетского городка, жизнь которого потрясает серия убийств.

Качество видео: WEB-DLRip

Продолжительность: ~ 00:44:00
Формат: AVI
Видео: XviD, 720х400, 1395 kbps
Аудио #1: русский, многоголосый закадровый [профессиональный], MP3 2.0, 128 kbps
Аудио #2: английский, оригинал, MP3 2.0, 128 kbps

Код:

Общее
Полное имя                               : \Scream.Queens.s01.NewStudio\Scream.Queens.s01e01e02.WEBDLRip.NewStudio.avi
Формат                                   : AVI
Формат/Информация                        : Audio Video Interleave
Размер файла                             : 1,06 Гбайт
Продолжительность                        : 1 ч. 31 м.
Общий поток                              : 1664 Кбит/сек
Программа кодирования                    : VirtualDubMod 1.5.10.2 (build 2540/release)
Библиотека кодирования                   : VirtualDubMod build 2540/release

Видео
Идентификатор                            : 0
Формат                                   : MPEG-4 Visual
Профиль формата                          : Advanced Simple@L5
Параметр BVOP формата                    : 2
Параметр QPel формата                    : Нет
Параметр GMC формата                     : Без точки перехода
Параметр матрицы формата                 : Default (MPEG)
Идентификатор кодека                     : XVID
Идентификатор кодека/Подсказка           : XviD
Продолжительность                        : 1 ч. 31 м.
Битрейт                                  : 1395 Кбит/сек
Ширина                                   : 720 пикселей
Высота                                   : 400 пикселей
Соотношение сторон                       : 16:9
Частота кадров                           : 23,976 кадра/сек
Цветовое пространство                    : YUV
Субдискретизация насыщенности            : 4:2:0
Битовая глубина                          : 8 бит
Тип развёртки                            : Прогрессивная
Метод сжатия                             : С потерями
Бит/(Пиксели*Кадры)                      : 0.202
Размер потока                            : 913 Мбайт (84%)
Библиотека кодирования                   : XviD 73

Аудио #1
Идентификатор                            : 1
Формат                                   : MPEG Audio
Версия формата                           : Version 1
Профиль формата                          : Layer 3
Режим                                    : Joint stereo
Расширение режима                        : MS Stereo
Идентификатор кодека                     : 55
Идентификатор кодека/Подсказка           : MP3
Продолжительность                        : 1 ч. 31 м.
Вид битрейта                             : Постоянный
Битрейт                                  : 128 Кбит/сек
Каналы                                   : 2 канала
Частота                                  : 48,0 КГц
Метод сжатия                             : С потерями
Размер потока                            : 83,8 Мбайт (8%)
Выравнивание                             : Соединение по промежуткам
Продолжительность промежутка             : 42  мс. (1,00 видеокадр)
Время предзагрузки промежутка            : 504  мс.

Аудио #2
Идентификатор                            : 2
Формат                                   : MPEG Audio
Версия формата                           : Version 1
Профиль формата                          : Layer 3
Режим                                    : Joint stereo
Расширение режима                        : MS Stereo
Идентификатор кодека                     : 55
Идентификатор кодека/Подсказка           : MP3
Продолжительность                        : 1 ч. 31 м.
Вид битрейта                             : Постоянный
Битрейт                                  : 128 Кбит/сек
Каналы                                   : 2 канала
Частота                                  : 48,0 КГц
Метод сжатия                             : С потерями
Размер потока                            : 83,8 Мбайт (8%)
Выравнивание                             : Соединение по промежуткам
Продолжительность промежутка             : 42  мс. (1,00 видеокадр)
Время предзагрузки промежутка            : 504  мс.
Библиотека кодирования                   : LAME3.99.5ЄЄЄЄЄЄЄЄЄЄ

Релиз группы:

picpicpicpicpic
Для увеличения картинки щелкните мышкой по превью


16.12.15. Раздача обновлена!
Добавлена 13, последняя серия. Сезон представлен полностью.
Перекачайте торрент файл!

Этот торрент недоступен для скачивания без регистрации, однако доступен по публичной magnet-ссылке (источники с публичных трекеров). Перед использованием ссылки прочтите, пожалуйста Пользовательское соглашение, а также как можно дольше оставайтесь на раздаче! Для того, чтобы скачать сам торрент-файл (который видит больше источников), а также для того, чтобы поблагодарить релизера, вам необходимо зарегистрироваться. Если регистрироваться лень - вы можете также попробовать скачать релиз по нашим партнерским ссылкам ниже.

[underverse.su].t58605.torrent
Трекер: Зарегистрирован   [ 16.12.2015 04:40 ]  

Статус: проверено (by makkol at 16.12.2015 07:59)
Поблагодарили: 2 человека
Тип торрента: публичный - доступные источники с открытых трекеров: 
Размер: 6,86 GB (занимает 1,57 DVDR, для записи нужно 2 болванки DVDR/RW)
 
 


Последний раз редактировалось: older (16.12.2015 04:40), всего редактировалось 7 раз(а)

older Пол:Муж

13-Окт-2015 02:53

13.10.15. Раздача обновлена!
Добавлены 2-4 серии.
Перекачайте торрент файл!

older Пол:Муж

19-Окт-2015 14:31

19.10.15. Раздача обновлена!
Добавлена 5 серия.
Перекачайте торрент файл!

older Пол:Муж

02-Ноя-2015 08:29

02.11.15. Раздача обновлена!
Перекачайте торрент файл!
Добавлена 6 серия.

older Пол:Муж

07-Ноя-2015 05:56

07.11.15. Раздача обновлена!
Добавлена 7 серия.
Перекачайте торрент файл!

older Пол:Муж

16-Ноя-2015 05:31

16.11.15. Раздача обновлена!
Добавлена 8 серия.
Перекачайте торрент файл!

older Пол:Муж

27-Ноя-2015 18:32

27.11.15. Раздача обновлена!
Добавлены 9-10 серии.
Перекачайте торрент файл!

older Пол:Муж

11-Дек-2015 12:02

11.12.15. Раздача обновлена!
Добавлена 11 серия.
Перекачайте торрент файл!

older Пол:Муж

16-Дек-2015 04:41

16.12.15. Раздача обновлена!
Перекачайте торрент файл!
Добавлена 13, последняя серия. Сезон представлен полностью.

Яндекс.Метрика powered by Sphinx


В Н И М А Н И Е
Сайт не распространяет и не хранит электронные версии произведений, а лишь бесплатно и без коммерческой выгоды (не требуя взамен платы,
SMS и т.д.) предоставляет доступ к создаваемому пользователями каталогу ссылок на торрент-файлы, которые содержат только списки хеш-сумм.
Убедительная просьба с жалобами обращаться напрямую к пользователю, разместившему торрент файл.

Вверх