Loading...
Error

Готэм / Gotham / Сезон 2 (1-11 серии из 22) (Т.Дж. Скотт, Дэнни Кэннон, Пол А. Эдвардс) [2015 г., триллер, драма, криминал, WEB-DLRip] MVO (NewStudio) + Original

Статистика раздачи
Размер:  5,8 GB   |    Зарегистрирован:  1 год   |    Скачан:  3 раза

Полного источника не было: 13 дней

Сидов:  0  |  0 KB/s  ]   Личеров:  0  |  0 KB/s  ]

* - сиды/пиры с внешних источников

   
 
Автор Сообщение

older Пол:Муж

25-Сен-2015 08:32

Готэм / Gotham / Сезон 2


Год выпуска: 2015
Жанр: триллер, драма, криминал
Страна: США
Режиссер: Т.Дж. Скотт, Дэнни Кэннон, Пол А. Эдвардс
В ролях: Бенжамин МакКензи, Шон Пертуи, Робин Тэйлор, Забрина Гевара, Эрин Ричардс, Донал Лог, Джада Пинкетт Смит, Дэвид Мазоуз, Камрен Бикондова, Кори Майкл Смит
Сюжет фильма:
Новый сотрудник департамента полиции Готэма, детектив Джеймс Гордон и его напарник Харви Баллок назначаются начальником отдела полиции Готэма по расследованию убийств Сарой Эссен на самое громкое дело последних лет - убийство Томаса и Марты Уэйн. Во время расследования Гордон знакомится с сыном убитых - Брюсом Уэйном, который после смерти родителей находится под опекой своего дворецкого Альфреда. Одновременно с расследованием убийства Гордону приходится бороться с местным главарем банды Фишем Муни, а также с будущими злодеями Готэма: Селиной Кайл и Освальдом Кобблпотом. В итоге, Гордон фокусируется на дружбе с молодым Брюсом, чтобы в будущем сделать из маленького мальчика Тёмного рыцаря - защитника Готэма.

Качество видео: WEB-DLRip

Продолжительность: ~ 00:44:00
Формат: AVI
Видео: XviD, 720х400, 1443 kbps
Аудио #1: русский, многоголосый закадровый [профессиональный], MP3 2.0, 128 kbps
Аудио #2: английский, оригинал, MP3 2.0, 128 kbps

Код:

Общее
Полное имя                               : \Gotham (S02) NewStudio\Gotham.s02e01.WEBDLRip.NewStudio.avi
Формат                                   : AVI
Формат/Информация                        : Audio Video Interleave
Размер файла                             : 539 Мбайт
Продолжительность                        : 44 м.
Общий поток                              : 1713 Кбит/сек
Программа кодирования                    : VirtualDubMod 1.5.10.3 | www.virtualdub-fr.org || (build 2550/release)
Библиотека кодирования                   : VirtualDubMod build 2550/release

Видео
Идентификатор                            : 0
Формат                                   : MPEG-4 Visual
Профиль формата                          : Advanced Simple@L5
Параметр BVOP формата                    : 2
Параметр QPel формата                    : Нет
Параметр GMC формата                     : Без точки перехода
Параметр матрицы формата                 : Default (MPEG)
Идентификатор кодека                     : XVID
Идентификатор кодека/Подсказка           : XviD
Продолжительность                        : 44 м.
Битрейт                                  : 1443 Кбит/сек
Ширина                                   : 720 пикселей
Высота                                   : 400 пикселей
Соотношение сторон                       : 16:9
Частота кадров                           : 23,976 кадра/сек
Цветовое пространство                    : YUV
Субдискретизация насыщенности            : 4:2:0
Битовая глубина                          : 8 бит
Тип развёртки                            : Прогрессивная
Метод сжатия                             : С потерями
Бит/(Пиксели*Кадры)                      : 0.209
Размер потока                            : 454 Мбайт (84%)
Библиотека кодирования                   : XviD 73

Аудио #1
Идентификатор                            : 1
Формат                                   : MPEG Audio
Версия формата                           : Version 1
Профиль формата                          : Layer 3
Идентификатор кодека                     : 55
Идентификатор кодека/Подсказка           : MP3
Продолжительность                        : 44 м.
Вид битрейта                             : Постоянный
Битрейт                                  : 128 Кбит/сек
Каналы                                   : 2 канала
Частота                                  : 48,0 КГц
Метод сжатия                             : С потерями
Размер потока                            : 40,3 Мбайт (7%)
Выравнивание                             : Соединение по промежуткам
Продолжительность промежутка             : 42  мс. (1,00 видеокадр)
Время предзагрузки промежутка            : 504  мс.

Аудио #2
Идентификатор                            : 2
Формат                                   : MPEG Audio
Версия формата                           : Version 1
Профиль формата                          : Layer 3
Режим                                    : Joint stereo
Расширение режима                        : MS Stereo
Идентификатор кодека                     : 55
Идентификатор кодека/Подсказка           : MP3
Продолжительность                        : 44 м.
Вид битрейта                             : Постоянный
Битрейт                                  : 128 Кбит/сек
Каналы                                   : 2 канала
Частота                                  : 48,0 КГц
Метод сжатия                             : С потерями
Размер потока                            : 40,3 Мбайт (7%)
Выравнивание                             : Соединение по промежуткам
Продолжительность промежутка             : 42  мс. (1,00 видеокадр)
Время предзагрузки промежутка            : 504  мс.
Библиотека кодирования                   : LAME3.99.5

Внимание! Раздача ведётся путём добавления новых серий.
При каждом добавлении создаётся новый торрент. Чтобы начать докачку новой серии, пользователям необходимо сделать следующее:
1. Остановить скачивание,
2. Удалить старый торрент у себя из клиента (старые серии удалять не надо),
3. Скачать новый торрент и запустить его у себя в клиенте вместо старого, при этом указать клиенту путь в старую папку куда и должно происходить скачивание новых серий.
Ваш клиент при этом должен произвести хеширование (проверку) старой папки (если не производит сам - помогите ему сделать это), и будет докачивать только те серии которых у вас ещё нет. Старые серии при этом не удаляются, а продолжают раздаваться!
Если вы уже удалили старые серии, то предотвратить повторную закачку старых серий можно, отжав галочку в соответствующих местах при запуске нового торрента.
Релиз группы:

picpicpicpicpic
Для увеличения картинки щелкните мышкой по превью


04.12.15. Раздача обновлена!
Добавлена 11 серия.
Перекачайте торрент файл!

Этот торрент недоступен для скачивания без регистрации, однако доступен по публичной magnet-ссылке (источники с публичных трекеров). Перед использованием ссылки прочтите, пожалуйста Пользовательское соглашение, а также как можно дольше оставайтесь на раздаче! Для того, чтобы скачать сам торрент-файл (который видит больше источников), а также для того, чтобы поблагодарить релизера, вам необходимо зарегистрироваться. Если регистрироваться лень - вы можете также попробовать скачать релиз по нашим партнерским ссылкам ниже.

[underverse.su].t58589.torrent
Трекер: Зарегистрирован   [ 04.12.2015 07:22 ]  

Статус: T временная (by makkol at 04.12.2015 08:05)
Поблагодарили: 1 человек
Тип торрента: публичный - доступные источники с открытых трекеров: 
Размер: 5,8 GB (занимает 1,33 DVDR, для записи нужно 2 болванки DVDR/RW)
 
 
Похожие темы
Форум Тема Автор Торрент Отв. Посл. сооб.
Зарубежные сериалы Готэм / Gotham / Сезон 1 (1-22 серии из 22) (Т.Дж. Скотт, Дэнни Кэннон, Пол А. Эдвардс) [2014-2015 г., триллер, драма, криминал, WEB-DLRip] MVO + Original older
8 | 7

0 | 450

20

26.08.2015 09:25

T Зарубежные сериалы Готэм / Gotham / Сезон 2 (1-19 серии из 22) (Т.Дж. Скотт, Дэнни Кэннон, Пол А. Эдвардс) [2015 г., триллер, драма, криминал, WEB-DLRip] MVO (LostFilm) + Original older
4 | 7

10 | 1412

1

05.05.2016 09:45



Последний раз редактировалось: older (04.12.2015 07:23), всего редактировалось 10 раз(а)

older Пол:Муж

12-Окт-2015 18:05

Добавлены 2-3 серии.
Перекачайте торрент файл!
12.10.15. Раздача обновлена!

older Пол:Муж

15-Окт-2015 08:18

15.10.15. Раздача обновлена!
Перекачайте торрент файл!
Добавлена 4 серия.

older Пол:Муж

21-Окт-2015 08:02

21.10.15. Раздача обновлена!
Добавлена 5 серия.
Перекачайте торрент файл!

older Пол:Муж

02-Ноя-2015 08:30

02.11.15. Раздача обновлена!
Добавлена 6 серия.
Перекачайте торрент файл!

older Пол:Муж

07-Ноя-2015 05:53

07.11.15. Раздача обновлена!
Перекачайте торрент файл!
Добавлена 7 серия.

older Пол:Муж

16-Ноя-2015 05:25

16.11.15. Раздача обновлена!
Добавлена 8 серия.
Перекачайте торрент файл!

older Пол:Муж

27-Ноя-2015 18:28

27.11.15. Раздача обновлена!
Добавлены 9-10 серии.
Перекачайте торрент файл!

older Пол:Муж

04-Дек-2015 07:24

04.12.15. Раздача обновлена!
Добавлена 11 серия.
Перекачайте торрент файл!

Яндекс.Метрика powered by Sphinx


В Н И М А Н И Е
Сайт не распространяет и не хранит электронные версии произведений, а лишь бесплатно и без коммерческой выгоды (не требуя взамен платы,
SMS и т.д.) предоставляет доступ к создаваемому пользователями каталогу ссылок на торрент-файлы, которые содержат только списки хеш-сумм.
Убедительная просьба с жалобами обращаться напрямую к пользователю, разместившему торрент файл.

Вверх