Loading...
Error

Москва никогда не спит (Джонни О’Райлли) [2015 г., драма, комедия, триллер, WEBRip]

Статистика раздачи
Размер:  1,46 GB   |    Зарегистрирован:  1 год 2 месяца   |    Скачан:  93 раза

Полного источника не было: 1 час 14 минут

Сидов:  0  |  0 KB/s  ]   Личеров:  0  |  0 KB/s  ]

* - сиды/пиры с внешних источников

   
 
Автор Сообщение

makkol Пол:Муж

24-Сен-2015 22:47

Москва никогда не спит
«Этот город перевернёт твою жизнь»


Год выпуска: 2015
Жанр: драма, комедия, триллер
Производство: Россия , Ирландия [Blinder Films, НТВ-Кино, Snapshot Films]
Режиссер: Джонни О’Райлли
В ролях: Евгения Брик, Михаил Ефремов, Алексей Серебряков, Виктор Вержбицкий, Алёна Бабенко, Юрий Стоянов, Любовь Аксенова, Олег Долин, Яна Попова, Соня Реснянская
Сюжет фильма:
В день, когда Москва празднует очередной день рождения, каждый из пяти героев должен будет сделать свой жизненный выбор. Их судьбы пересекутся и изменятся навсегда. Предприниматель должен отстоять свой бизнес, которому угрожают госчиновники; начинающая певица разрывается между любовью и деньгами; знаменитый актер, которого похищают среди белого дня, наконец-то сможет побыть собой и сказать правду; молодой человек ищет возможность соединить долг и собственные желания; а ненавидящим друг друга сводным сестрам за одну опасную ночь удастся найти взаимопонимание. Связанные скрытыми узами, герои представят яркий портрет мегаполиса в День города. Под взрывы салюта раскроется безудержная энергия крупнейшего города Европы.

  • Российская премьера: 3 сентября 2015


Качество видео: WEBRip

Продолжительность: 01:39:49
Формат: AVI
Видео: XviD, 720x304 (2.35:1), 25.000 fps, 1899 kbps
Аудио: русский, оригинал, AC3 2.0, 48 kHz, 192 kbps

Код:

Общее
Полное имя : M0skva.n1kogda.ne.spit.2015.O.WEBRip.1.46GB.avi
Формат : AVI
Формат/Информация : Audio Video Interleave
Размер файла : 1,45 Гбайт
Продолжительность : 1 ч. 39 м.
Общий поток : 2084 Кбит/сек
Программа кодирования : VirtualDubMod 1.5.10.2 (build 2540/release)
Библиотека кодирования : VirtualDubMod build 2540/release

Видео
Идентификатор : 0
Формат : MPEG-4 Visual
Профиль формата : Advanced Simple@L5
Параметр BVOP формата : 2
Параметр QPel формата : Нет
Параметр GMC формата : Без точки перехода
Параметр матрицы формата : Default (MPEG)
Идентификатор кодека : XVID
Идентификатор кодека/Подсказка : XviD
Продолжительность : 1 ч. 39 м.
Битрейт : 1839 Кбит/сек
Ширина : 720 пикселей
Высота : 304 пикселя
Соотношение сторон : 2,35:1
Частота кадров : 25,000 кадров/сек
Цветовое пространство : YUV
Субдискретизация насыщенности : 4:2:0
Битовая глубина : 8 бит
Тип развёртки : Прогрессивная
Метод сжатия : С потерями
Бит/(Пиксели*Кадры) : 0.289
Размер потока : 1,29 Гбайт (89%)
Библиотека кодирования : XviD 1.2.1 (UTC 2008-12-04)

Аудио
Идентификатор : 1
Формат : AC-3
Формат/Информация : Audio Coding 3
Расширение режима : CM (complete main)
Параметр Endianness формата : Big
Идентификатор кодека : 2000
Продолжительность : 1 ч. 39 м.
Вид битрейта : Постоянный
Битрейт : 192 Кбит/сек
Каналы : 2 канала
Расположение каналов : Front: L R
Частота : 48,0 КГц
Метод сжатия : С потерями
Размер потока : 160 Мбайт (11%)
Выравнивание : Разделение по промежуткам
Продолжительность промежутка : 40 мс. (1,00 видеокадр)
Время предзагрузки промежутка : 500 мс.
picpicpicpicpic
Для увеличения картинки щелкните мышкой по превью

Этот торрент недоступен для скачивания без регистрации, однако доступен по публичной magnet-ссылке (источники с публичных трекеров). Перед использованием ссылки прочтите, пожалуйста Пользовательское соглашение, а также как можно дольше оставайтесь на раздаче! Для того, чтобы скачать сам торрент-файл (который видит больше источников), а также для того, чтобы поблагодарить релизера, вам необходимо зарегистрироваться. Если регистрироваться лень - вы можете также попробовать скачать релиз по нашим партнерским ссылкам ниже.

[underverse.su].t58584.torrent
Трекер: Зарегистрирован   [ 24.09.2015 22:47 ]  

Статус: проверено (by makkol at 25.09.2015 11:15)
Поблагодарили: 3 человека
Тип торрента: публичный - доступные источники с открытых трекеров: 
Размер: 1,46 GB (занимает 0,33 DVDR, для записи нужно 1 болванка DVDR/RW)
 
 
Похожие темы
Форум Тема Автор Торрент Отв. Посл. сооб.
Наше кино [HDDVDRip / BDRip / WEB-DL / HDTV 1080/720р] Москва никогда не спит (Джонни О’Райлли ) [2015 г., драма, комедия, триллер, WEBRip 720p] makkol
29 | 0

0 | 693

44

24.09.2015 22:58

Наше кино [HDDVDRip / BDRip / WEB-DL / HDTV 1080/720р] Москва никогда не спит (Джонни О’Райлли) [2015 г., драма, комедия, триллер, WEB-DL 1080p] makkol
0 | 0

0 | 504

25

29.09.2015 23:02


Яндекс.Метрика powered by Sphinx


В Н И М А Н И Е
Сайт не распространяет и не хранит электронные версии произведений, а лишь бесплатно и без коммерческой выгоды (не требуя взамен платы,
SMS и т.д.) предоставляет доступ к создаваемому пользователями каталогу ссылок на торрент-файлы, которые содержат только списки хеш-сумм.
Убедительная просьба с жалобами обращаться напрямую к пользователю, разместившему торрент файл.

Вверх