Loading...
Error

Волшебный король / Beings / The Fairy King of Ar (Пол Мэттьюз) [1998 г., фэнтези, приключения, семейный, DVDRip] MVO

Статистика раздачи
Размер:  1,37 GB   |    Зарегистрирован:  10 месяцев   |    Скачан:  3 раза

Полного источника не было: 9 месяцев

Сидов:  0  |  0 KB/s  ]   Личеров:  0  |  0 KB/s  ]

* - сиды/пиры с внешних источников

   
 
Автор Сообщение

makkol Пол:Муж

23-Сен-2015 10:56

Волшебный король / Beings / The Fairy King of Ar


Год выпуска: 1998
Жанр: фэнтези, приключения, семейный
Производство: Великобритания [Peakviewing Transatlantic PLC]
Режиссер: Пол Мэттьюз
В ролях: Корбин Бернсен, Глайнис Барбер, Бритни Боманн, Малкольм МакДауэлл, Рон Смержак, Аманда Лэйн
Сюжет фильма:
Иви и Кайл приезжают с родителями на остров Мэн и селятся в красивом доме, полученном в наследство от бабушки. Местные жители уверяют, что это нехорошее место и в заброшенной шахте заключены злобные гоблины. Но дети верят, что в подземелье томятся добрые эльфы, низвергнутые туда много веков назад злым великаном. Чтобы им помочь, необходимо открыть вход в подземелье...

  • Мировая премьера: 14 мая 1998


Качество видео: DVDRip

Продолжительность: 01:31:16
Формат: AVI
Видео: XviD, 704x528 (1.33:1), 25.000 fps, 1749 kbps
Аудио: русский, профессиональный многоголосый закадровый, AC3 5.1, 48 kHz, 384 kbps

Код:

General
Complete name : Volshebnyi.korol.2002.XviD.DVDRip-Zanaves.avi
Format : AVI
Format/Info : Audio Video Interleave
File size : 1.37 GiB
Duration : 1h 31mn
Overall bit rate : 2 143 Kbps
Writing application : VirtualDubMod 1.5.10.2 (build 2540/release)
Writing library : VirtualDubMod build 2540/release

Video
ID : 0
Format : MPEG-4 Visual
Format profile : AdvancedSimple@L5
Format settings, BVOP : Yes
Format settings, QPel : No
Format settings, GMC : No warppoints
Format settings, Matrix : Default (MPEG)
Codec ID : XVID
Codec ID/Hint : XviD
Duration : 1h 31mn
Bit rate : 1 750 Kbps
Width : 704 pixels
Height : 528 pixels
Display aspect ratio : 4/3
Frame rate : 25.000 fps
Resolution : 24 bits
Colorimetry : 4:2:0
Scan type : Progressive
Bits/(Pixel*Frame) : 0.188
Stream size : 1.12 GiB (82%)
Writing library : XviD 1.2.1 (UTC 2008-12-04)

Audio
ID : 1
Format : AC-3
Format/Info : Audio Coding 3
Codec ID : 2000
Duration : 1h 31mn
Bit rate mode : Constant
Bit rate : 384 Kbps
Channel(s) : 6 channels
Channel positions : Front: L C R, Surround: L R, LFE
Sampling rate : 48.0 KHz
Stream size : 251 MiB (18%)
Alignment : Split accross interleaves
Interleave, duration : 40 ms (1.00 video frame)
Interleave, preload duration : 500 ms
Релиз группа:

picpicpicpicpic
Для увеличения картинки щелкните мышкой по превью

Этот торрент недоступен для скачивания без регистрации, однако доступен по публичной magnet-ссылке (источники с публичных трекеров). Перед использованием ссылки прочтите, пожалуйста Пользовательское соглашение, а также как можно дольше оставайтесь на раздаче! Для того, чтобы скачать сам торрент-файл (который видит больше источников), а также для того, чтобы поблагодарить релизера, вам необходимо зарегистрироваться. Если регистрироваться лень - вы можете также попробовать скачать релиз по нашим партнерским ссылкам ниже.

[underverse.su].t58531.torrent
Трекер: Зарегистрирован   [ 26.01.2016 21:39 ]  

Статус: проверено (by makkol at 26.01.2016 21:39)
Поблагодарили: 2 человека
Тип торрента: публичный - доступные источники с открытых трекеров: 
Размер: 1,37 GB (занимает 0,31 DVDR, для записи нужно 1 болванка DVDR/RW)
 
 
Похожие темы
Форум Тема Автор Торрент Отв. Посл. сооб.
Зарубежные мультфильмы Волшебный меч: Спасение Камелота / Quest for Camelot (Фредерик Ду Чау) [1998 г., мультфильм, фэнтези, драма, комедия, приключения, семейный, DVDRip-AVC] 2xDub + MVO + Original garry
1 | 0

0 | 1201

39

07.12.2012 16:49

Зарубежные мультфильмы Волшебный футбол / Metegol / Futbolin (Хуан Хосе Кампанелла) [2013 г., мультфильм, приключения, семейный, спорт, HDRip] MVO (AlexFilm) + Original (Eng) 90ytr90
1 | 0

0 | 410

13

27.11.2014 15:18

Мультсериалы Волшебный школьный автобус / The Magic School Bus [S01-04] (Ларри Джейкобс, Чарльз Е. Бастьен) [1994-98г., мультфильм, фэнтези, приключения, семейный, TVRip] lera_dom
4 | 0

1 | 1349

9

28.04.2012 22:34

Аниме Волшебный учитель Нэгима! OVA-1 / Magic Teacher Negima! Spring OVA / Negima!? Spring Special!? (Симбо Акиюки) [2006, комедия, этти, DVDrip] Hitman
0 | 0

0 | 861

0

02.03.2011 11:24

Аниме Волшебный учитель Нэгима! OVA-2 / Mahou Sensei Negima! Summer OAV / Negima!? Summer OAV (Онума Син) [2006, комедия, мистика, этти, DVDrip] Hitman
0 | 0

0 | 854

0

02.03.2011 11:29

Зарубежное кино [HDDVDRip / BDRip / WEB-DL / HDTV 1080/720р] Волшебный футбол / Metegol / Futbolin (Хуан Хосе Кампанелла) [2013 г., мультфильм, приключения, семейный, спорт, BDRip 720p] MVO (AlexFilm) + Original (Spa) + Сommentary + Sub (Rus, Spa) 90ytr90
2 | 0

0 | 253

3

27.11.2014 15:49


Яндекс.Метрика powered by Sphinx


В Н И М А Н И Е
Сайт не распространяет и не хранит электронные версии произведений, а лишь бесплатно и без коммерческой выгоды (не требуя взамен платы,
SMS и т.д.) предоставляет доступ к создаваемому пользователями каталогу ссылок на торрент-файлы, которые содержат только списки хеш-сумм.
Убедительная просьба с жалобами обращаться напрямую к пользователю, разместившему торрент файл.

Вверх