Loading...
Error

Монтажёр / The Editor (Адам Брукс, Мэттью Кеннеди) [2014 г., ужасы, комедия, детектив, DVDRip] VO

Статистика раздачи
Размер:  1,45 GB   |    Зарегистрирован:  1 год 2 месяца   |    Скачан:  19 раз

Полного источника не было: 10 месяцев

Сидов:  0  |  0 KB/s  ]   Личеров:  0  |  0 KB/s  ]

* - сиды/пиры с внешних источников

   
 
Автор Сообщение

makkol Пол:Муж

22-Сен-2015 16:06

Монтажёр / The Editor


Год выпуска: 2014
Жанр: ужасы, комедия, детектив
Страна: Канада
Режиссер: Адам Брукс, Мэттью Кеннеди
В ролях: Пас де ла Уэрта, Удо Кир, Тристан Риск, Лоуренс Р. Харви, Джерри Вассерман, Адам Брукс, Саманта Хилл, Шейла Кэмпбелл, Конор Суини, Мэттью Кеннеди
Сюжет фильма:
История о монтажёре, который оказывается втянут в вереницу убийств.

  • Мировая премьера: 11 сентября 2014


Перевод: МЕГАПЫХАРЬ
Озвучивание: Васька Куролесов

Качество видео: DVDRip

Продолжительность: 01:34:47
Формат: AVI
Видео: XviD, 720x288, 23.976 fps, 1996 kbps
Аудио: русский, любительский одноголосый закадровый, AC3 2.0, 48 kHz, 192 kbps

После титров концовка!

Код:

General
Complete name : The Editor_2014_KypoJIecoB .avi
Format : AVI
Format/Info : Audio Video Interleave
File size : 1.45 GiB
Duration : 1h 34mn
Overall bit rate : 2 197 Kbps

Video
ID : 0
Format : MPEG-4 Visual
Format profile : Advanced Simple@L5
Format settings, BVOP : 2
Format settings, QPel : No
Format settings, GMC : No warppoints
Format settings, Matrix : Default (H.263)
Codec ID : XVID
Codec ID/Hint : XviD
Duration : 1h 34mn
Bit rate : 1 996 Kbps
Width : 720 pixels
Height : 288 pixels
Display aspect ratio : 2.500
Frame rate : 23.976 fps
Color space : YUV
Chroma subsampling : 4:2:0
Bit depth : 8 bits
Scan type : Progressive
Compression mode : Lossy
Bits/(Pixel*Frame) : 0.401
Stream size : 1.32 GiB (91%)
Writing library : XviD 67

Audio
ID : 1
Format : AC-3
Format/Info : Audio Coding 3
Mode extension : CM (complete main)
Format settings, Endianness : Big
Codec ID : 2000
Duration : 1h 34mn
Bit rate mode : Constant
Bit rate : 192 Kbps
Channel(s) : 2 channels
Channel positions : Front: L R
Sampling rate : 48.0 KHz
Compression mode : Lossy
Stream size : 130 MiB (9%)
Alignment : Split accross interleaves
Interleave, duration : 42 ms (1.00 video frame)
Interleave, preload duration : 500 ms
picpicpicpic
Для увеличения картинки щелкните мышкой по превью

Этот торрент недоступен для скачивания без регистрации, однако доступен по публичной magnet-ссылке (источники с публичных трекеров). Перед использованием ссылки прочтите, пожалуйста Пользовательское соглашение, а также как можно дольше оставайтесь на раздаче! Для того, чтобы скачать сам торрент-файл (который видит больше источников), а также для того, чтобы поблагодарить релизера, вам необходимо зарегистрироваться. Если регистрироваться лень - вы можете также попробовать скачать релиз по нашим партнерским ссылкам ниже.

[underverse.su].t58507.torrent
Трекер: Зарегистрирован   [ 22.09.2015 16:06 ]  

Статус: проверено (by makkol at 23.09.2015 11:32)
Поблагодарили: 1 человек
Тип торрента: публичный - доступные источники с открытых трекеров: 
Размер: 1,45 GB (занимает 1/3 DVDR, для записи нужно 1 болванка DVDR/RW)
 
 

Яндекс.Метрика powered by Sphinx


В Н И М А Н И Е
Сайт не распространяет и не хранит электронные версии произведений, а лишь бесплатно и без коммерческой выгоды (не требуя взамен платы,
SMS и т.д.) предоставляет доступ к создаваемому пользователями каталогу ссылок на торрент-файлы, которые содержат только списки хеш-сумм.
Убедительная просьба с жалобами обращаться напрямую к пользователю, разместившему торрент файл.

Вверх