Loading...
Error

Джезабель / Jessabelle (Кевин Гротерт) [2014 г., триллер, ужасы, HDRip] Dub

Статистика раздачи
Размер:  1,37 GB   |    Зарегистрирован:  1 год 2 месяца   |    Скачан:  8 раз

Полного источника не было: 4 дня

Сидов:  0  |  0 KB/s  ]   Личеров:  0  |  0 KB/s  ]

* - сиды/пиры с внешних источников

   
 
Автор Сообщение

makkol Пол:Муж

22-Сен-2015 15:17

Джезабель / Jessabelle
«И мёртвые восстанут»


Год выпуска: 2014
Жанр: триллер, ужасы
Производство: США [Lionsgate]
Режиссер: Кевин Гротерт
В ролях: Сара Снук, Джоэль Картер, Марк Веббер, Дэвид Эндрюс, Ана де ла Регера, Эмбер Стивенс, Крис Эллис, Брайан Хэллисей, Вон Уилсон, Лариса Олейник
Сюжет фильма:
После трагической аварии, унесшей жизни жениха Джесси и их еще нерожденного ребенка, девушка оказывается прикована к инвалидному креслу и вынуждена переехать к своему отцу, проживающему в отдаленном особняке. Вскоре она обнаруживает загадочные видеозаписи, снятые ее давно умершей матерью. Джесси с ужасом понимает, что таинственные предсказания начинают сбываться…

  • Мировая премьера: 6 ноября 2014
  • Российская премьера: 27 ноября 2014


Качество видео: HDRip

Продолжительность: 01:30:07
Формат: AVI
Видео: XviD, 720x400 (16:9), 23.976 fps, 1778 kbps
Аудио: русский, дублированный (iTunes), AC3 5.1, 48 kHz, 384 kbps

Код:

Общее
Полное имя                               : Джезабель.2O14.D.HDRip.avi
Формат                                   : AVI
Формат/Информация                        : Audio Video Interleave
Размер файла                             : 1,37 Гбайт
Продолжительность                        : 1 ч. 30 м.
Общий поток                              : 2171 Кбит/сек
Программа кодирования                    : VirtualDubMod 1.5.10.2 (build 2540/release)
Библиотека кодирования                   : VirtualDubMod build 2540/release

Видео
Идентификатор                            : 0
Формат                                   : MPEG-4 Visual
Профиль формата                          : Advanced Simple@L5
Параметр BVOP формата                    : 2
Параметр QPel формата                    : Нет
Параметр GMC формата                     : Без точки перехода
Параметр матрицы формата                 : Default (MPEG)
Идентификатор кодека                     : XVID
Идентификатор кодека/Подсказка           : XviD
Продолжительность                        : 1 ч. 30 м.
Битрейт                                  : 1778 Кбит/сек
Ширина                                   : 720 пикселей
Высота                                   : 400 пикселей
Соотношение сторон                       : 16:9
Частота кадров                           : 23,976 кадра/сек
Цветовое пространство                    : YUV
Субдискретизация насыщенности            : 4:2:0
Битовая глубина                          : 8 бит
Тип развёртки                            : Прогрессивная
Метод сжатия                             : С потерями
Бит/(Пиксели*Кадры)                      : 0.257
Размер потока                            : 1,12 Гбайт (82%)
Библиотека кодирования                   : XviD 1.2.1 (UTC 2008-12-04)

Аудио
Идентификатор                            : 1
Формат                                   : AC-3
Формат/Информация                        : Audio Coding 3
Расширение режима                        : CM (complete main)
Параметр Endianness формата              : Big
Идентификатор кодека                     : 2000
Продолжительность                        : 1 ч. 30 м.
Вид битрейта                             : Постоянный
Битрейт                                  : 384 Кбит/сек
Каналы                                   : 6 каналов
Расположение каналов                     : Front: L C R, Side: L R, LFE
Частота                                  : 48,0 КГц
Метод сжатия                             : С потерями
Размер потока                            : 248 Мбайт (18%)
Выравнивание                             : Разделение по промежуткам
Продолжительность промежутка             : 42  мс. (1,00 видеокадр)
Время предзагрузки промежутка            : 500  мс.
picpicpicpicpic
Для увеличения картинки щелкните мышкой по превью

Этот торрент недоступен для скачивания без регистрации, однако доступен по публичной magnet-ссылке (источники с публичных трекеров). Перед использованием ссылки прочтите, пожалуйста Пользовательское соглашение, а также как можно дольше оставайтесь на раздаче! Для того, чтобы скачать сам торрент-файл (который видит больше источников), а также для того, чтобы поблагодарить релизера, вам необходимо зарегистрироваться. Если регистрироваться лень - вы можете также попробовать скачать релиз по нашим партнерским ссылкам ниже.

[underverse.su].t58504.torrent
Трекер: Зарегистрирован   [ 22.09.2015 15:17 ]  

Статус: T временная (by makkol at 23.09.2015 11:29)
Поблагодарили: пока никто не поблагодарил...
Тип торрента: публичный - доступные источники с открытых трекеров: 
Размер: 1,37 GB (занимает 0,31 DVDR, для записи нужно 1 болванка DVDR/RW)
 
 
Похожие темы
Форум Тема Автор Торрент Отв. Посл. сооб.
Зарубежное кино [DVDRip, Low-Res HDRip, и т.д.] Джезабель / Jessabelle (Кевин Гротерт) [2014 г., Ужасы, Триллер, WEB-DLRip] VO (RUS, R.A.I.M.) Ведьмочка
54 | 2

0 | 1006

35

14.11.2014 00:58

Зарубежное кино [DVDRip, Low-Res HDRip, и т.д.] Джезабель / Jessabelle (Кевин Гротерт) [2014 г., ужасы, триллер, HDRip] Джезабель / Jessabelle (Кевин Гротерт / Kevin Greutert) [2014 г., ужасы, триллер, HDRip] DVO (Сладкая Парочка) 90ytr90
24 | 2

0 | 553

10

03.01.2015 14:19

Зарубежное кино [DVDRip, Low-Res HDRip, и т.д.] Джезабель / Jessabelle (Кевин Гротерт) [2014 г., ужасы, триллер, HDRip] Джезабель / Jessabelle (Кевин Гротерт / Kevin Greutert) [2014 г., ужасы, триллер, BDRip-AVC] DVO (Paradox) + Sub (Rus, Eng) 90ytr90
15 | 0

1 | 566

3

12.04.2015 03:33

Зарубежное кино [DVDRip, Low-Res HDRip, и т.д.] Джезабель / Jessabelle (Кевин Гротерт) [2014 г., ужасы, триллер, HDRip] Джезабель / Jessabelle (Кевин Гротерт / Kevin Greutert) [2014 г., ужасы, триллер, BDRip-AVC] 2xDVO +3xVO + Original (Eng) + Sub... 90ytr90
0 | 0

0 | 500

6

28.02.2015 20:06

T Зарубежное кино [DVDRip, Low-Res HDRip, и т.д.] Джезабель / Jessabelle (Кевин Гротерт) [2014 г., ужасы, триллер, HDRip] Dub [чистый звук] Паукан
5 | 0

0 | 651

16

03.04.2015 15:56

Зарубежное кино [HDDVDRip / BDRip / WEB-DL / HDTV 1080/720р] Джезабель / Jessabelle (Кевин Гротерт) [2014 г., Ужасы, Триллер, WEB-DL 720p] 2-VO (RUS, datynet / R.A.I.M.) + Original (ENG) + Subs (RUS, ENG) Ведьмочка
2 | 0

0 | 884

11

14.11.2014 00:53

Зарубежное кино [HDDVDRip / BDRip / WEB-DL / HDTV 1080/720р] Джезабель / Jessabelle (Кевин Гротерт) [2014 г., Ужасы, Триллер, BDRip 720p] 2-DVO (RUS, Сладкая Парочка / ParaDox) + 3-VO (RUS, А. Агапов / R.A.I.M. / TimeMashine) + Original (ENG) + Subs (RUS, ENG) Ведьмочка
7 | 0

0 | 610

3

04.01.2015 07:03

T Зарубежное кино [HDDVDRip / BDRip / WEB-DL / HDTV 1080/720р] Джезабель / Jessabelle (Кевин Гротерт) [2014 г., ужасы, триллер, BDRip 720p] Dub [чистый звук] + Original Паукан
0 | 0

0 | 893

16

03.04.2015 16:01

T Зарубежное кино [HDDVDRip / BDRip / WEB-DL / HDTV 1080/720р] Джезабель / Jessabelle (Кевин Гротерт) [2014 г., ужасы, триллер, BDRip 720p] Dub + Original makkol
12 | 0

0 | 312

1

22.09.2015 15:31

T Зарубежное кино [HDDVDRip / BDRip / WEB-DL / HDTV 1080/720р] Джезабель / Jessabelle (Кевин Гротерт) [2014 г., ужасы, триллер, BDRip 1080p] Dub + Original makkol
12 | 0

0 | 374

7

22.09.2015 15:41


Яндекс.Метрика powered by Sphinx


В Н И М А Н И Е
Сайт не распространяет и не хранит электронные версии произведений, а лишь бесплатно и без коммерческой выгоды (не требуя взамен платы,
SMS и т.д.) предоставляет доступ к создаваемому пользователями каталогу ссылок на торрент-файлы, которые содержат только списки хеш-сумм.
Убедительная просьба с жалобами обращаться напрямую к пользователю, разместившему торрент файл.

Вверх