Loading...
Error

9 спасителей / Амулет / Kao phra kum krong / Where is Tong? (Тираторн Сирипунварапорн) [2001 г., приключения, семейный, DVDRip-AVC] VO + Original + Subs

Статистика раздачи
Размер:  1,73 GB   |    Зарегистрирован:  1 год 2 месяца   |    Скачан:  2 раза

Полного источника не было: 7 месяцев

Сидов:  0  |  0 KB/s  ]   Личеров:  0  |  0 KB/s  ]

* - сиды/пиры с внешних источников

   
 
Автор Сообщение

makkol Пол:Муж

20-Сен-2015 11:50

9 спасителей / Амулет / Kao phra kum krong / Where is Tong?


Год выпуска: 2001
Жанр: приключения, семейный
Страна: Таиланд
Режиссер: Тираторн Сирипунварапорн
В ролях: Анан Анвар, Тавантай Тайсавад, Сачолдей Ачваранон, Правит Тонгминсук, Малита Селинк, Кави Танчаравак
Сюжет фильма:
Маленький городок Ламунг в провинции Питсанулок. Пятеро малолетних шалопаев в свободное от учебы и отдыха время терроризируют местную юродивую старушку по имени Порн - дразнят и воруют у нее кукурузу. Во время бегства после очередной вылазки за кукурузой Порн спасает жизнь одному из детей, но сама оказывается в больнице с тяжелой травмой. Когда дети узнают, что Порн много лет назад сошла с ума после того, как исчез ее сын Тонг, мучимые угрызениями совести они решают отправиться в Бангкок, чтобы его разыскать.
В Бангкоке к процессу поисков присоединяются еще четыре персонажа постарше, которые, однако, практически не присматривают за подрастающим поколением. В результате, параллельно с поиском Тонга, дети торгуют на рынке одеждой сомнительного происхождения, занимаются доставкой наркотиков, немного бьют приставшего к ним педофила, а потом и вовсе начинают гоняться за серийным убийцей.

  • Мировая премьера: 9 июля 2001


Качество видео: DVDRip-AVC

Продолжительность: 01:41:18
Формат: MKV
Видео: MPEG-4 AVC, 688x426 (16:9), 24.564 fps, 2048 kbps
Аудио #1: русский, любительский одноголосый закадровый (cybervlad), AC3 2.0, 48 kHz, 192 kbps
Аудио #2: тайский, отдельным файлом, оригинал, AC3 2.0, 48 kHz, 192 kbps
Субтитры: русские вшитые отключаемые на песни, VobSub + внешние полные, IDX+SUB (cybervlad)
В контейнере MKV находится аудио дорожка с русским голосовым переводом и субтитры с переводами песен. Для любителей смотреть в оригинале, оригинальная аудио дорожка и полные субтитры лежат отдельными файлами (*.ac3, *.idx, *.sub)
Релиз: cybervlad

Код:

General
Complete name : 9_saviors_rus_ac3_sub_cybervlad.mkv
Format : Matroska
Format version : Version 2
File size : 1.59 GiB
Duration : 1h 41mn
Overall bit rate : 2 242 Kbps
Encoded date : UTC 2011-08-21 16:45:03
Writing application : mkvmerge v4.9.1 ('Ich will') сборка от Jul 11 2011 21:17:31
Writing library : libebml v1.2.1 + libmatroska v1.1.1

Video
ID : 1
Format : AVC
Format/Info : Advanced Video Codec
Format profile : High@L3.0
Format settings, CABAC : Yes
Format settings, ReFrames : 4 frames
Format settings, GOP : M=3, N=4
Codec ID : V_MPEG4/ISO/AVC
Duration : 1h 41mn
Bit rate : 2 048 Kbps
Width : 688 pixels
Height : 426 pixels
Display aspect ratio : 16:9
Original display aspect ratio : 16:9
Frame rate mode : Variable
Frame rate : 24.564 fps
Color space : YUV
Chroma subsampling : 4:2:0
Bit depth : 8 bits
Scan type : Progressive
Bits/(Pixel*Frame) : 0.284
Stream size : 1.42 GiB (89%)
Title : video
Writing library : x264 core 112
Encoding settings : cabac=1 / ref=3 / deblock=1:0:0 / analyse=0x3:0x113 / me=umh / subme=7 / psy=1 / psy_rd=1.00:0.00 / mixed_ref=1 / me_range=16 / chroma_me=1 / trellis=1 / 8x8dct=1 / cqm=0 / deadzone=21,11 / fast_pskip=1 / chroma_qp_offset=-2 / threads=3 / sliced_threads=0 / nr=0 / decimate=1 / interlaced=0 / constrained_intra=0 / bframes=3 / b_pyramid=2 / b_adapt=2 / b_bias=0 / direct=1 / weightb=1 / open_gop=0 / weightp=2 / keyint=250 / keyint_min=24 / scenecut=40 / intra_refresh=0 / rc_lookahead=50 / rc=2pass / mbtree=1 / bitrate=2048 / ratetol=1.0 / qcomp=0.60 / qpmin=3 / qpmax=51 / qpstep=4 / cplxblur=20.0 / qblur=0.5 / ip_ratio=1.40 / aq=1:1.00
Language : Russian
Color primaries : BT.601-6 525, BT.1358 525, BT.1700 NTSC, SMPTE 170M
Transfer characteristics : BT.709-5, BT.1361
Matrix coefficients : BT.601-6 525, BT.1358 525, BT.1700 NTSC, SMPTE 170M

Audio
ID : 2
Format : AC-3
Format/Info : Audio Coding 3
Mode extension : CM (complete main)
Codec ID : A_AC3
Duration : 1h 41mn
Bit rate mode : Constant
Bit rate : 192 Kbps
Channel(s) : 2 channels
Channel positions : Front: L R
Sampling rate : 48.0 KHz
Bit depth : 16 bits
Compression mode : Lossy
Stream size : 139 MiB (9%)
Title : audio_RUS
Language : Russian

Text
ID : 3
Format : VobSub
Muxing mode : zlib
Codec ID : S_VOBSUB
Codec ID/Info : The same subtitle format used on DVDs
Title : subtitles_RUS
Language : Russian

Menu
00:00:00.000 : en:Chapter 1
00:08:26.020 : en:Chapter 2
00:16:52.920 : en:Chapter 3
00:25:20.200 : en:Chapter 4
00:33:45.840 : en:Chapter 5
00:42:12.800 : en:Chapter 6
00:50:38.920 : en:Chapter 7
00:59:05.880 : en:Chapter 8
01:07:32.200 : en:Chapter 9
01:15:59.040 : en:Chapter 10
01:24:24.960 : en:Chapter 11
01:32:51.920 : en:Chapter 12
picpicpicpicpic
Для увеличения картинки щелкните мышкой по превью

Этот торрент недоступен для скачивания без регистрации, однако доступен по публичной magnet-ссылке (источники с публичных трекеров). Перед использованием ссылки прочтите, пожалуйста Пользовательское соглашение, а также как можно дольше оставайтесь на раздаче! Для того, чтобы скачать сам торрент-файл (который видит больше источников), а также для того, чтобы поблагодарить релизера, вам необходимо зарегистрироваться. Если регистрироваться лень - вы можете также попробовать скачать релиз по нашим партнерским ссылкам ниже.

[underverse.su].t58450.torrent
Трекер: Зарегистрирован   [ 20.09.2015 11:50 ]  

Статус: проверено (by makkol at 21.09.2015 08:52)
Поблагодарили: пока никто не поблагодарил...
Тип торрента: публичный - доступные источники с открытых трекеров: 
Размер: 1,73 GB (занимает 0,39 DVDR, для записи нужно 1 болванка DVDR/RW)
 
 

Яндекс.Метрика powered by Sphinx


В Н И М А Н И Е
Сайт не распространяет и не хранит электронные версии произведений, а лишь бесплатно и без коммерческой выгоды (не требуя взамен платы,
SMS и т.д.) предоставляет доступ к создаваемому пользователями каталогу ссылок на торрент-файлы, которые содержат только списки хеш-сумм.
Убедительная просьба с жалобами обращаться напрямую к пользователю, разместившему торрент файл.

Вверх