Loading...
Error

Остров / The Island (Майкл Ритчи) [1980 г., боевик, триллер, драма, приключения, BDRip] MVO

Статистика раздачи
Размер:  1,45 GB   |    Зарегистрирован:  1 год 2 месяца   |    Скачан:  10 раз

Полного источника не было: 3 месяца 13 дней

Сидов:  0  |  0 KB/s  ]   Личеров:  0  |  0 KB/s  ]

* - сиды/пиры с внешних источников

   
 
Автор Сообщение

makkol Пол:Муж

20-Сен-2015 10:14

Остров / The Island


Год выпуска: 1980
Жанр: боевик, триллер, драма, приключения
Производство: США [Universal Pictures, Zanuck/Brown Productions]
Режиссер: Майкл Ритчи
В ролях: Майкл Кейн, Дэвид Уорнер, Анджела Панч МакГрегор, Фрэнк Миддлмэсс, Дон Хендерсон, Дадли Саттон, Колин Дживонс, Закес Мокае, Брэд Салливан, Джеффри Фрэнк
Сюжет фильма:
Репортер Блэйр Мэйнард упрашивает своего издателя отправить его в окрестности Флориды, где таинственным образом исчезают суда. Но кто бы мог подумать, что обычное журналистское расследование обернется самым сенсационным открытием века?!
Выясняется, что причиной страшных исчезновений яхт оказывается не пресловутый Бермудский Треугольник, а… настоящие пираты! Карибский бассейн всегда был знаменитой «пиратской вотчиной», но представить себе, что где-то на бескрайних просторах моря обитает община пиратов, понятия не имеющая, что на дворе двадцатое столетие, было просто невозможно! Но, к сожалению, это оказалось невероятной правдой.
Лодка журналиста была взята «на абордаж», а ее пассажиры, Блэйр и его сын Джастин, стали добычей букканиров из семнадцатого века! Теперь посмотрим: сможет ли изнеженный цивилизацией газетчик противостоять свирепым пиратам?!

  • Мировая премьера: 13 июня 1980


Качество видео: BDRip

Продолжительность: 01:54:12
Формат: AVI
Видео: XviD, 720x304 (2.35:1), 23.976 fps, 1620 kbps
Аудио: русский, профессиональный многоголосый закадровый (Первый канал), AC3 2.0, 48 kHz, 192 kbps

Код:

Общее
Полное имя                               : Ostrov.1980.XviD.BDRip.MVO.avi
Формат                                   : AVI
Формат/Информация                        : Audio Video Interleave
Размер файла                             : 1,45 Гбайт
Продолжительность                        : 1 ч. 54 м.
Общий поток                              : 1822 Кбит/сек
Режиссёр                                 : Rip by Inch
Жанр                                     : Action/Adventure
Программа кодирования                    : VirtualDubMod 1.5.10.3 | www.virtualdub-fr.org || (build 2550/release)
Примечание                               : RusMVO [1-й канал]

Видео
Идентификатор                            : 0
Формат                                   : MPEG-4 Visual
Профиль формата                          : Advanced Simple@L5
Параметр BVOP формата                    : 2
Параметр QPel формата                    : Нет
Параметр GMC формата                     : Без точки перехода
Параметр матрицы формата                 : Выборочная
Идентификатор кодека                     : XVID
Идентификатор кодека/Подсказка           : XviD
Продолжительность                        : 1 ч. 54 м.
Битрейт                                  : 1621 Кбит/сек
Ширина                                   : 720 пикселей
Высота                                   : 304 пикселя
Соотношение сторон                       : 2,35:1
Частота кадров                           : 23,976 кадра/сек
Цветовое пространство                    : YUV
Субдискретизация насыщенности            : 4:2:0
Битовая глубина                          : 8 бит
Тип развёртки                            : Прогрессивная
Метод сжатия                             : С потерями
Бит/(Пиксели*Кадры)                      : 0.309
Размер потока                            : 1,29 Гбайт (89%)
Библиотека кодирования                   : XviD 73

Аудио
Идентификатор                            : 1
Формат                                   : AC-3
Формат/Информация                        : Audio Coding 3
Расширение режима                        : CM (complete main)
Параметр Endianness формата              : Big
Идентификатор кодека                     : 2000
Продолжительность                        : 1 ч. 54 м.
Вид битрейта                             : Постоянный
Битрейт                                  : 192 Кбит/сек
Каналы                                   : 2 канала
Расположение каналов                     : Front: L R
Частота                                  : 48,0 КГц
Битовая глубина                          : 16 бит
Метод сжатия                             : С потерями
Размер потока                            : 157 Мбайт (11%)
Выравнивание                             : Разделение по промежуткам
Продолжительность промежутка             : 42  мс. (1,00 видеокадр)
Время предзагрузки промежутка            : 500  мс.
picpicpicpicpic
Для увеличения картинки щелкните мышкой по превью

Этот торрент недоступен для скачивания без регистрации, однако доступен по публичной magnet-ссылке (источники с публичных трекеров). Перед использованием ссылки прочтите, пожалуйста Пользовательское соглашение, а также как можно дольше оставайтесь на раздаче! Для того, чтобы скачать сам торрент-файл (который видит больше источников), а также для того, чтобы поблагодарить релизера, вам необходимо зарегистрироваться. Если регистрироваться лень - вы можете также попробовать скачать релиз по нашим партнерским ссылкам ниже.

[underverse.su].t58448.torrent
Трекер: Зарегистрирован   [ 20.09.2015 10:14 ]  

Статус: проверено (by makkol at 20.09.2015 10:56)
Поблагодарили: 1 человек
Тип торрента: публичный - доступные источники с открытых трекеров: 
Размер: 1,45 GB (занимает 1/3 DVDR, для записи нужно 1 болванка DVDR/RW)
 
 
Похожие темы
Форум Тема Автор Торрент Отв. Посл. сооб.
Зарубежное кино [DVDRip, Low-Res HDRip, и т.д.] Остров / The Island (Майкл Бэй / Michael Bay ) [2005 г., Фантастика, боевик, триллер , HDDVDRip-AVC] [-Owlet-]
0 | 0

8 | 2403

43

11.10.2012 08:10

Зарубежное кино [DVDRip, Low-Res HDRip, и т.д.] Остров / The Island (Майкл Бэй / Michael Bay) [2005 г., фантастика, боевик, триллер, BDRip-AVC] Dub + Original (Eng) + Sub (Rus, Eng) 90ytr90
23 | 0

0 | 325

5

31.01.2015 22:35

Зарубежное кино [DVDRip, Low-Res HDRip, и т.д.] Остров / The Island (Майкл Бэй / Michael Bay) [2005 г., фантастика, боевик, триллер, BDRip] Dub 90ytr90
20 | 0

0 | 296

6

31.01.2015 22:36

Зарубежное кино [DVDRip, Low-Res HDRip, и т.д.] Остров / The Island (Майкл Бэй / Michael Bay) [2005 г., фантастика, боевик, триллер, BDRip] Dub + Original (Eng) + DVO (Tycoon-studio) + AVO (Королев) 90ytr90
12 | 1

0 | 301

5

31.01.2015 22:36

Зарубежное кино [DVDRip, Low-Res HDRip, и т.д.] Остров / The Island (Майкл Бэй / Michael Bay) [2005 г., фантастика, боевик, триллер, HDRip] Dub 90ytr90
7 | 0

0 | 477

17

31.01.2015 22:37

Зарубежное кино [DVDRip, Low-Res HDRip, и т.д.] Остров / The Island (Майкл Бэй / Michael Bay) [2005 г., фантастика, боевик, триллер, HDRip] AVO (Гаврилов) 90ytr90
1 | 0

0 | 315

3

31.01.2015 22:37

Зарубежное кино [HDDVDRip / BDRip / WEB-DL / HDTV 1080/720р] Остров / The Island (Майкл Бэй / Michael Bay) [2005 г., фантастика, боевик, триллер, BDRip 1080p] Dub + Original (Eng) + Sub (Rus, Eng) 90ytr90
1 | 0

0 | 556

6

02.02.2015 18:43

Зарубежное кино [HDDVDRip / BDRip / WEB-DL / HDTV 1080/720р] Остров / The Island (Майкл Ритчи) [1980 г., боевик, триллер, драма, приключения, BDRip 1080p] 2xMVO + Original makkol
1 | 0

0 | 538

1

20.09.2015 10:31


Яндекс.Метрика powered by Sphinx


В Н И М А Н И Е
Сайт не распространяет и не хранит электронные версии произведений, а лишь бесплатно и без коммерческой выгоды (не требуя взамен платы,
SMS и т.д.) предоставляет доступ к создаваемому пользователями каталогу ссылок на торрент-файлы, которые содержат только списки хеш-сумм.
Убедительная просьба с жалобами обращаться напрямую к пользователю, разместившему торрент файл.

Вверх